\m/ 80's metal \m/

Информационно-аналитический форум "80 см пыли" (In Search We Trust) "У нас никто никуда не спешит"
Me For You - http://me-4u.com
It is currently 24 Sep 2021

All times are UTC + 3 hours

Spoiler
Chat - temporary registration for foreign users (please leave your application here)







Post new topic Reply to topic  [ 17 posts ] 
Author Message
 
PostPosted: 27 Jun 2011 
Работнечег
User avatar
Joined: 28 Aug 2007
Posts: 6364
Lоcаtion: г. Москва
Age: 32
Name: Дима
Image

Band: Nightwing
Album: Something In The Air
Year: 1980 (Remastered in ????)
Label: Zoom Club Records
Genre: ? Rock
Coutry: UK
Format: Flac + Log + Cue + Covers
Size: 291 Mb

Line-Up:
Gordon Rowley - Bass, Lead & Harmony Vocals
Kenny Newton - Keyboards, Lead & Harmony Vocals
Alec Johnson - Lead & Rhytm Guitar
Berington Van Campen - Keyboards, 12 & 6 String Guitars, Harmony Vocals
Steve Bartley - Drums On tracks 2,3 & 6
Paul H. Ellison - Drums On track 1,5 & 7
John Mylett - Drums on track 4


Tracklist:
1. Fantasia/Nightwing 04:53
2. Cold Love 05:10
3. Edge Of A Knife 04:27
4. Something In The Air 07:12
5. Barrel Of Pain 04:16
6. Boogie Woman 04:55
7. You Keep Me Hanging On/Fantasia Reprise 08:06

LOG
Exact Audio Copy V0.99 prebeta 5 from 4. May 2009

EAC extraction logfile from 27. June 2011, 18:11

Nightwing / Something In The Air

Used drive : PIONEER DVD-RW DVR-116D Adapter: 0 ID: 0

Read mode : Secure
Utilize accurate stream : Yes
Defeat audio cache : Yes
Make use of C2 pointers : No

Read offset correction : 96
Overread into Lead-In and Lead-Out : No
Fill up missing offset samples with silence : Yes
Delete leading and trailing silent blocks : No
Null samples used in CRC calculations : Yes
Used interface : Native Win32 interface for Win NT & 2000

Used output format : User Defined Encoder
Selected bitrate : 32 kBit/s
Quality : High
Add ID3 tag : No
Command line compressor : C:\Program Files\Exact Audio Copy\Flac\flac.exe
Additional command line options : -6 -V %s


TOC of the extracted CD

Track | Start | Length | Start sector | End sector
---------------------------------------------------------
1 | 0:00.00 | 4:52.48 | 0 | 21947
2 | 4:52.48 | 5:10.03 | 21948 | 45200
3 | 10:02.51 | 4:26.72 | 45201 | 65222
4 | 14:29.48 | 7:12.00 | 65223 | 97622
5 | 21:41.48 | 4:16.24 | 97623 | 116846
6 | 25:57.72 | 4:54.57 | 116847 | 138953
7 | 30:52.54 | 8:05.48 | 138954 | 175376


Range status and errors

Selected range

Filename D:\Музыка\Lossless\Nightwing - Something In The Air (1980) (Digitally Remastered)\Nightwing - Something In The Air.wav

Peak level 99.8 %
Range quality 100.0 %
Copy CRC C97D24DA
Copy OK

No errors occurred


AccurateRip summary

Track 1 accurately ripped (confidence 1) [F510FDF3]
Track 2 accurately ripped (confidence 1) [C4FF78C7]
Track 3 accurately ripped (confidence 1) [AE6714C1]
Track 4 accurately ripped (confidence 1) [B55B5AE5]
Track 5 accurately ripped (confidence 1) [67DE68FA]
Track 6 accurately ripped (confidence 1) [26EA0B6F]
Track 7 accurately ripped (confidence 1) [A6FFAB62]

All tracks accurately ripped

End of status report

CUE
REM GENRE Rock
REM DATE 1980
REM DISCID 58092207
REM COMMENT "ExactAudioCopy v0.99pb5"
PERFORMER "Nightwing"
TITLE "Something In The Air"
FILE "Nightwing - Something In The Air.flac" WAVE
TRACK 01 AUDIO
TITLE "Fantasia/Nightwing"
PERFORMER "Nightwing"
INDEX 01 00:00:00
TRACK 02 AUDIO
TITLE "Cold Love"
PERFORMER "Nightwing"
INDEX 00 04:52:18
INDEX 01 04:52:48
TRACK 03 AUDIO
TITLE "Edge Of A Knife"
PERFORMER "Nightwing"
INDEX 00 10:02:21
INDEX 01 10:02:51
TRACK 04 AUDIO
TITLE "Something In The Air"
PERFORMER "Nightwing"
INDEX 00 14:29:18
INDEX 01 14:29:48
TRACK 05 AUDIO
TITLE "Barrel Of Pain"
PERFORMER "Nightwing"
INDEX 00 21:41:18
INDEX 01 21:41:48
TRACK 06 AUDIO
TITLE "Boogie Woman"
PERFORMER "Nightwing"
INDEX 00 25:57:42
INDEX 01 25:57:72
TRACK 07 AUDIO
TITLE "You Keep Me Hanging On / Fantasia Reprise"
PERFORMER "Nightwing"
INDEX 00 30:52:24
INDEX 01 30:52:54

Spectrum
Image


You Keep Me Hanging On божественная песня :true: :true: :true:

Narod.Ru

Другие альбомы в лосслесс:
Nightwing - Black Summer (1982)
Nightwing - Stand Up And Be Counted (1983) ссылки там правда умерли :oops:
Nightwing - My Kingdom Come (1984) есть диск, могу перезалить и сканы сделать. пишите тут, если надо кому, я так понимаю там рип тож с диска был, а не с винила.

to be continued... ;)


Top
 Profile E-mail  
 
 
PostPosted: 27 Jun 2011 
Прокъмитолист
User avatar
Joined: 12 Aug 2007
Posts: 6868
Lоcаtion: Санктъ-Петербуркъ
Age: 53
Name: Олекъ
:thanx:

_________________
прокъметол - это музыко, от которово есть прок (ы)


Top
 Profile  
 
 
PostPosted: 28 Jun 2011 
Труъ
User avatar
Joined: 14 Jul 2009
Posts: 158
Lоcаtion: Hell Is Here
Age: 51
Name: Adriano
Thank You ! :true:


Top
 Profile E-mail  
 
 
PostPosted: 28 Jun 2011 
хард н хэвщик (support team)
User avatar
Joined: 02 Jun 2008
Posts: 16881
Lоcаtion: Н.Новгород
Age: 34
Name: Артем
:true:


Top
 Profile  
 
 
PostPosted: 28 Jun 2011 
Почётный металлург
User avatar
Joined: 15 Sep 2007
Posts: 4360
Lоcаtion: Хабаровск
Age: 61
Name: чуть выше
Отлично! Тыщу благодарностей, Дима. :dance:
И скинь пжлста 84-й со сканами - оказывается, у меня его нет.

_________________
Коль будешь людей ты ослами честить,
тебе человеком меж них не прослыть!
(Саади, персидский поэт, 13в.)


Top
 Profile  
 
 
PostPosted: 28 Jun 2011 
Почётный металлург
User avatar
Joined: 15 Sep 2007
Posts: 4360
Lоcаtion: Хабаровск
Age: 61
Name: чуть выше
church wrote:
You Keep Me Hanging On божественная песня

Ты прав! Но для меня лучше всех ее исполнил Род Стюарт в 77г. в самом классном альбоме. Слезы юности...

_________________
Коль будешь людей ты ослами честить,
тебе человеком меж них не прослыть!
(Саади, персидский поэт, 13в.)


Top
 Profile  
 
 
PostPosted: 28 Jun 2011 
Работнечег
User avatar
Joined: 28 Aug 2007
Posts: 6364
Lоcаtion: г. Москва
Age: 32
Name: Дима
Sergey wrote:
church wrote:
You Keep Me Hanging On божественная песня

Ты прав! Но для меня лучше всех ее исполнил Род Стюарт в 77г. в самом классном альбоме. Слезы юности...

Хым..а я вот не знал, что это кавер :fingal: спасибо за информацию)
1984 выложу в течение месяца где-нибудь, пока что и так много накопилось чего выкладывать.


Top
 Profile E-mail  
 
 
PostPosted: 28 Jun 2011 
А может смените мне статус?..
User avatar
Joined: 30 Aug 2009
Posts: 824
Lоcаtion: Ачинск, Красноярский край
Age: 35
Name: Стас
Спасибо!!! :true:


Top
 Profile E-mail  
 
 
PostPosted: 28 Jun 2011 
Хиппей (support team)
User avatar
Joined: 30 Jul 2007
Posts: 122705
Lоcаtion: Киев (Kyiv, UA)
Age: 48
Name: Andrey
:thanx:
mirror: MultiUp l Narod

_________________


Top
 Profile E-mail  
 
 
PostPosted: 29 Jun 2011 
Old Time Rock`n`Roll
User avatar
Joined: 23 Jun 2008
Posts: 3619
Lоcаtion: г.Ульяновск
Age: 43
Name: Константин
Дима, спасибо! От 1984 г. тоже бы не отказался.
Насчет You Keep Me Hangin' On - американцы The Rods ее здорово испоолнили на 1982 г., выделяется там эта вещь.


Top
 Profile  
 
 
PostPosted: 14 Aug 2011 
Почётный металлург
User avatar
Joined: 15 Sep 2007
Posts: 4360
Lоcаtion: Хабаровск
Age: 61
Name: чуть выше
Дима, как насчет 84-го? Не забыл?

_________________
Коль будешь людей ты ослами честить,
тебе человеком меж них не прослыть!
(Саади, персидский поэт, 13в.)


Top
 Profile  
 
 
PostPosted: 15 Aug 2011 
Хиппей (support team)
User avatar
Joined: 30 Jul 2007
Posts: 122705
Lоcаtion: Киев (Kyiv, UA)
Age: 48
Name: Andrey
Этот viewtopic.php?f=187&t=4040 , шоле? :vic:

_________________


Top
 Profile E-mail  
 
 
PostPosted: 15 Aug 2011 
Работнечег
User avatar
Joined: 28 Aug 2007
Posts: 6364
Lоcаtion: г. Москва
Age: 32
Name: Дима
Sergey wrote:
Дима, как насчет 84-го? Не забыл?

Не забыл, сегодня оформлю ;)


Top
 Profile E-mail  
 
 
PostPosted: 15 Aug 2011 
Работнечег
User avatar
Joined: 28 Aug 2007
Posts: 6364
Lоcаtion: г. Москва
Age: 32
Name: Дима
Scatterbrain wrote:
Этот viewtopic.php?f=187&t=4040 , шоле? :vic:

Этот-этот, токо там ссылка дохлая


Top
 Profile E-mail  
 
 
PostPosted: 15 Aug 2011 
Хиппей (support team)
User avatar
Joined: 30 Jul 2007
Posts: 122705
Lоcаtion: Киев (Kyiv, UA)
Age: 48
Name: Andrey
church wrote:
токо там ссылка дохлая

Угу, но я мог бы перезалить. Ок, давай тогда новый рип, трушный :true:

_________________


Top
 Profile E-mail  
 
 
PostPosted: 15 Aug 2011 
Почётный металлург
User avatar
Joined: 15 Sep 2007
Posts: 4360
Lоcаtion: Хабаровск
Age: 61
Name: чуть выше
Классно. Жду.

_________________
Коль будешь людей ты ослами честить,
тебе человеком меж них не прослыть!
(Саади, персидский поэт, 13в.)


Top
 Profile  
 
 
PostPosted: 18 Aug 2011 
Пионэръ
User avatar
Joined: 08 Nov 2010
Posts: 43
Lоcаtion: Россия
Name: Юрий
Спасибо, за хорошие релизы.


Top
 Profile E-mail  
 
Display posts from previous:  Sort by  
Post new topic Reply to topic  [ 17 posts ] 

All times are UTC + 3 hours


Who is online

Users browsing this forum: No registered users and 1 guest


You cannot post new topics in this forum
You cannot reply to topics in this forum
You cannot edit your posts in this forum
You cannot delete your posts in this forum

Search for:
Яндекс.Метрика
Powered by phpBB © 2000, 2002, 2005, 2007 phpBB Group