\m/ 80's metal \m/

Информационно-аналитический форум "80 см пыли" (In Search We Trust) "У нас никто никуда не спешит"
Me For You - http://me-4u.com
It is currently 16 Sep 2021

All times are UTC + 3 hours

Spoiler
Chat - temporary registration for foreign users (please leave your application here)







Post new topic Reply to topic  [ 9 posts ] 
Author Message
 
PostPosted: 18 Jun 2011 
Работнечег
User avatar
Joined: 28 Aug 2007
Posts: 6364
Lоcаtion: г. Москва
Age: 32
Name: Дима
Image

Band: Nightwing
Album: Black Summer
Year: 1982 (Remastered in ????)
Label: Zoom Club Records
Genre: Heavy Metal
Coutry: UK
Format: Flac + Log + Cue + Covers
Size: 310 Mb

Line-Up:
Gordon Rowley - Bass, Lead & Harmony Vocals
Alex Johnson - Guitars, Lead & Harmony Vocals
Kenny Newton - Keyboards
Steve Bartley - Drums


Tracklist:
1. Overnight Sensation 05:52
2. Bird Has Flown 03:44
3. Carry On 03:02
4. Long Hard Road 05:53
5. Searching 03:29
6. Evil Woman 05:20
7. Black Summer 06:50
8. Don't Want to Lose You 07:02

LOG
Exact Audio Copy V0.99 prebeta 5 from 4. May 2009

EAC extraction logfile from 27. May 2011, 23:19

Nightwing / Black Summer

Used drive : PIONEER DVD-RW DVR-116D Adapter: 0 ID: 0

Read mode : Secure
Utilize accurate stream : Yes
Defeat audio cache : Yes
Make use of C2 pointers : No

Read offset correction : 96
Overread into Lead-In and Lead-Out : No
Fill up missing offset samples with silence : Yes
Delete leading and trailing silent blocks : No
Null samples used in CRC calculations : Yes
Used interface : Native Win32 interface for Win NT & 2000

Used output format : User Defined Encoder
Selected bitrate : 32 kBit/s
Quality : High
Add ID3 tag : No
Command line compressor : C:\Program Files\Exact Audio Copy\Flac\flac.exe
Additional command line options : -6 -V %s


TOC of the extracted CD

Track | Start | Length | Start sector | End sector
---------------------------------------------------------
1 | 0:00.00 | 5:52.63 | 0 | 26462
2 | 5:52.63 | 3:44.34 | 26463 | 43296
3 | 9:37.22 | 3:02.32 | 43297 | 56978
4 | 12:39.54 | 5:53.13 | 56979 | 83466
5 | 18:32.67 | 3:29.50 | 83467 | 99191
6 | 22:02.42 | 5:20.26 | 99192 | 123217
7 | 27:22.68 | 6:50.46 | 123218 | 154013
8 | 34:13.39 | 7:02.21 | 154014 | 185684


Range status and errors

Selected range

Filename D:\Музыка\Lossless\Nightwing - Black Summer (1982) (Digitally Remastered)\Nightwing - Black Summer.wav

Peak level 99.8 %
Range quality 100.0 %
Copy CRC C8500708
Copy OK

No errors occurred


AccurateRip summary

Track 1 accurately ripped (confidence 2) [62D705D2]
Track 2 accurately ripped (confidence 2) [E064D7B3]
Track 3 accurately ripped (confidence 2) [46E740E1]
Track 4 accurately ripped (confidence 2) [476C9322]
Track 5 accurately ripped (confidence 2) [2A227534]
Track 6 accurately ripped (confidence 2) [6BDAAF7E]
Track 7 accurately ripped (confidence 2) [61010E60]
Track 8 accurately ripped (confidence 2) [CCCA8DF5]

All tracks accurately ripped

End of status report

CUE
REM GENRE "Heavy Metal/Hard Rock"
REM DATE 1982
REM DISCID 5D09AB08
REM COMMENT "ExactAudioCopy v0.99pb5"
PERFORMER "Nightwing"
TITLE "Black Summer"
FILE "Nightwing - Black Summer.flac" WAVE
TRACK 01 AUDIO
TITLE "Overnight Sensation"
PERFORMER "Nightwing"
INDEX 01 00:00:00
TRACK 02 AUDIO
TITLE "Bird Has Flown"
PERFORMER "Nightwing"
INDEX 00 05:51:33
INDEX 01 05:52:63
TRACK 03 AUDIO
TITLE "Carry On"
PERFORMER "Nightwing"
INDEX 00 09:35:67
INDEX 01 09:37:22
TRACK 04 AUDIO
TITLE "Long Hard Road"
PERFORMER "Nightwing"
INDEX 00 12:38:24
INDEX 01 12:39:54
TRACK 05 AUDIO
TITLE "Searching"
PERFORMER "Nightwing"
INDEX 00 18:31:37
INDEX 01 18:32:67
TRACK 06 AUDIO
TITLE "Evil Woman"
PERFORMER "Nightwing"
INDEX 00 22:01:12
INDEX 01 22:02:42
TRACK 07 AUDIO
TITLE "Black Summer"
PERFORMER "Nightwing"
INDEX 00 27:21:38
INDEX 01 27:22:68
TRACK 08 AUDIO
TITLE "Don't Want To Lose You"
PERFORMER "Nightwing"
INDEX 00 34:12:09
INDEX 01 34:13:39

Spectrum
Image


Narod.Ru


Top
 Profile E-mail  
 
 
PostPosted: 18 Jun 2011 
Хиппей (support team)
User avatar
Joined: 30 Jul 2007
Posts: 122605
Lоcаtion: Киев (Kyiv, UA)
Age: 48
Name: Andrey
:thanx:
mirror: MultiUp l Narod

_________________


Top
 Profile E-mail  
 
 
PostPosted: 18 Jun 2011 
А может смените мне статус?..
User avatar
Joined: 30 Aug 2009
Posts: 824
Lоcаtion: Ачинск, Красноярский край
Age: 35
Name: Стас
Дима, спасибо!!!


Top
 Profile E-mail  
 
 
PostPosted: 18 Jun 2011 
А может смените мне статус?..
User avatar
Joined: 24 Dec 2008
Posts: 675
Age: 47
Name: Дмитрий
Спасибо.


Top
 Profile  
 
 
PostPosted: 18 Jun 2011 
Прокъмитолист
User avatar
Joined: 12 Aug 2007
Posts: 6859
Lоcаtion: Санктъ-Петербуркъ
Age: 53
Name: Олекъ
:thanx:

_________________
прокъметол - это музыко, от которово есть прок (ы)


Top
 Profile  
 
 
PostPosted: 18 Jun 2011 
Old Time Rock`n`Roll
User avatar
Joined: 23 Jun 2008
Posts: 3619
Lоcаtion: г.Ульяновск
Age: 43
Name: Константин
Дима, спасибо за альбом, забрал! :true:


Top
 Profile  
 
 
PostPosted: 18 Jun 2011 
хард н хэвщик (support team)
User avatar
Joined: 02 Jun 2008
Posts: 16881
Lоcаtion: Н.Новгород
Age: 34
Name: Артем
:true:


Top
 Profile  
 
 
PostPosted: 19 Jun 2011 
Труъ
User avatar
Joined: 14 Jul 2009
Posts: 158
Lоcаtion: Hell Is Here
Age: 51
Name: Adriano
Many Thanx !! :thanx:


Top
 Profile E-mail  
 
 
PostPosted: 23 Jun 2011 
Почётный металлург
User avatar
Joined: 15 Sep 2007
Posts: 4360
Lоcаtion: Хабаровск
Age: 61
Name: чуть выше
Класс! Огромное спасибо, Димьян. Нифига, как уматно. Мой фаворный альбом у них.

_________________
Коль будешь людей ты ослами честить,
тебе человеком меж них не прослыть!
(Саади, персидский поэт, 13в.)


Top
 Profile  
 
Display posts from previous:  Sort by  
Post new topic Reply to topic  [ 9 posts ] 

All times are UTC + 3 hours


Who is online

Users browsing this forum: No registered users and 1 guest


You cannot post new topics in this forum
You cannot reply to topics in this forum
You cannot edit your posts in this forum
You cannot delete your posts in this forum

Search for:
Яндекс.Метрика
Powered by phpBB © 2000, 2002, 2005, 2007 phpBB Group