\m/ 80's metal \m/

Информационно-аналитический форум "80 см пыли" (In Search We Trust) "У нас никто никуда не спешит"
Me For You - http://me-4u.com
It is currently 25 Sep 2021

All times are UTC + 3 hours

Spoiler
Chat - temporary registration for foreign users (please leave your application here)







Post new topic Reply to topic  [ 3 posts ] 
Author Message
 
PostPosted: 13 Apr 2010 
ыыыы
User avatar
Joined: 17 May 2009
Posts: 952
Lоcаtion: Пушкино, МО
Age: 42
Name: Дмитрий
Image


Жанр: Hard Rock
Происхождение исполнителя: США
Год издания: 1985
Год издания данного носителя: 1985
Страна-производитель носителя: Япония
Аудио кодек: FLAC
Тип рипа: image+.cue
Битрейт аудио: lossless
Продолжительность: 42:20
Рип: Собственный
Лейбл: RCA/WARNER-PIONEER
Каталоговый номер: 32XD-307/MCAD-5593/DIDX-389
Матрица: 32XD-307 11 +++++ (SONY)

Треклист:
1. Seven Wishes 04:54
2. Faces 04:12
3. Four in the Morning 03:55
4. I Need a Woman 04:41
5. Sentimental Street 04:14
6. This Boy Needs to Rock 04:00
7. I Will Follow You 04:16
8. Interstate Love Affair 03:16
9. Night Machine 04:35
10. Goodbye 04:18


"Куй"
REM GENRE "Hard Rock"
REM DATE 1985
REM DISCID 8609EC0A
REM COMMENT "ExactAudioCopy v0.99pb5"
PERFORMER "Night Ranger"
TITLE "7 Wishes [32XD-307]"
FILE "Night Ranger - 7 Wishes [32XD-307].flac" WAVE
TRACK 01 AUDIO
TITLE "Seven Wishes"
PERFORMER "Night Ranger"
INDEX 01 00:00:00
TRACK 02 AUDIO
TITLE "Faces"
PERFORMER "Night Ranger"
INDEX 01 04:54:15
TRACK 03 AUDIO
TITLE "Four in the Morning"
PERFORMER "Night Ranger"
INDEX 00 09:05:47
INDEX 01 09:06:42
TRACK 04 AUDIO
TITLE "I Need a Woman"
PERFORMER "Night Ranger"
INDEX 00 12:59:52
INDEX 01 13:01:20
TRACK 05 AUDIO
TITLE "Sentimental Street"
PERFORMER "Night Ranger"
INDEX 00 17:40:50
INDEX 01 17:42:02
TRACK 06 AUDIO
TITLE "This Boy Needs to Rock"
PERFORMER "Night Ranger"
INDEX 00 21:53:67
INDEX 01 21:55:60
TRACK 07 AUDIO
TITLE "I Will Follow You"
PERFORMER "Night Ranger"
INDEX 01 25:55:40
TRACK 08 AUDIO
TITLE "Interstate Love Affair"
PERFORMER "Night Ranger"
INDEX 01 30:11:12
TRACK 09 AUDIO
TITLE "Night Machine"
PERFORMER "Night Ranger"
INDEX 00 33:25:50
INDEX 01 33:26:60
TRACK 10 AUDIO
TITLE "Goodbye"
PERFORMER "Night Ranger"
INDEX 00 38:00:62
INDEX 01 38:02:05


"Лог"
Exact Audio Copy V0.99 prebeta 5 from 4. May 2009

EAC extraction logfile from 13. April 2010, 10:47

Night Ranger / 7 Wishes [32XD-307]

Used drive : Optiarc DVD RW AD-7200A Adapter: 0 ID: 0

Read mode : Secure
Utilize accurate stream : Yes
Defeat audio cache : Yes
Make use of C2 pointers : No

Read offset correction : 48
Overread into Lead-In and Lead-Out : No
Fill up missing offset samples with silence : Yes
Delete leading and trailing silent blocks : No
Null samples used in CRC calculations : Yes
Used interface : Native Win32 interface for Win NT & 2000

Used output format : User Defined Encoder
Selected bitrate : 128 kBit/s
Quality : High
Add ID3 tag : No
Command line compressor : C:\Program Files\Exact Audio Copy\Flac\flac.exe
Additional command line options : -8 -V -T "artist=%a" -T "title=%t" -T "album=%g" -T "date=%y" -T "tracknumber=%n" -T "genre=%m" -T "comment=EAC 0.9beta4 / FLAC 1.1.0 q6" %s


TOC of the extracted CD

Track | Start | Length | Start sector | End sector
---------------------------------------------------------
1 | 0:00.00 | 4:54.15 | 0 | 22064
2 | 4:54.15 | 4:12.27 | 22065 | 40991
3 | 9:06.42 | 3:54.53 | 40992 | 58594
4 | 13:01.20 | 4:40.57 | 58595 | 79651
5 | 17:42.02 | 4:13.58 | 79652 | 98684
6 | 21:55.60 | 3:59.55 | 98685 | 116664
7 | 25:55.40 | 4:15.47 | 116665 | 135836
8 | 30:11.12 | 3:15.48 | 135837 | 150509
9 | 33:26.60 | 4:35.20 | 150510 | 171154
10 | 38:02.05 | 4:17.70 | 171155 | 190499


Range status and errors

Selected range

Filename Y:\Музыка\Night Ranger\1985 7 Wishes\Night Ranger - 7 Wishes [32XD-307].wav

Peak level 97.6 %
Range quality 100.0 %
Copy CRC D07E4F27
Copy OK

No errors occurred

End of status report


Состав:
Jack Blades: Bass, Lead vocals
Alan Fitzgerald: Keyboards, Piano, Vocals
Jeff Watson: Lead & rhythm guitars
Brad Gillis: Lead & rhythm guitars
Kelly Keagy: Drums, Percussion, Vocals
With Kevin Charles & Vince Neil: Shouting

Народ

_________________
Витасу до Даймонда как Алсу до Руссоса | При переразмещении - спрашивать разрешение!!


Top
 Profile  
 
 
PostPosted: 13 Apr 2010 
Персональный статус
Joined: 06 Oct 2007
Posts: 339
Спасибо! :true:


Top
 Profile  
 
 
PostPosted: 13 Apr 2010 
Анатолий
User avatar
Joined: 18 Oct 2008
Posts: 4181
Lоcаtion: Армавир
Age: 44
Name: Анатолий
Ох ты!!! И тако тоже имеется!!! Ну... я просто в осадке...

Спасибо большое! :thanx:

P.S. Ты что же... всю Японию скупил что ль? :shok:


Top
 Profile E-mail  
 
Display posts from previous:  Sort by  
Post new topic Reply to topic  [ 3 posts ] 

All times are UTC + 3 hours


Who is online

Users browsing this forum: No registered users and 1 guest


You cannot post new topics in this forum
You cannot reply to topics in this forum
You cannot edit your posts in this forum
You cannot delete your posts in this forum

Search for:
Яндекс.Метрика
Powered by phpBB © 2000, 2002, 2005, 2007 phpBB Group