\m/ 80's metal \m/

Информационно-аналитический форум "80 см пыли" (In Search We Trust) "У нас никто никуда не спешит"
Me For You - http://me-4u.com
It is currently 24 Sep 2021

All times are UTC + 3 hours

Spoiler
Chat - temporary registration for foreign users (please leave your application here)







Post new topic Reply to topic  [ 8 posts ] 
Author Message
 
PostPosted: 07 May 2009 
Alive Again
User avatar
Joined: 17 Dec 2008
Posts: 4750
Lоcаtion: Курск Воронеж Оскол
Age: 47
Name: Дмитрий
Nightwing - My Kingdom Come


Image

Year: 1984
Genre: Hard Rock
Format: Ape+Cue+Log
Size: 250mb +3%
Country: UK

Tracklist:
01. Back On The Streets {6:09}
02. Fingers In The Fire {2:59}
03. Night Of Mystery {3:45}
04. Give Me The Love That I Want {3:46}
05. Cell {3:15}
06. The Devil Walks Behind You {3:50}
07. Living Behind The 8 Ball {4:11}
08. Men Of War {4:53}
09. My Kingdom Come {6:15}

http://rapidshare.com/files/212353665/Nightwing84.part1.rar
http://rapidshare.com/files/212362798/Nightwing84.part2.rar
http://rapidshare.com/files/212372020/Nightwing84.part3.rar

Благодарности Игорю (Abig8) :thanx:
ну и скромный :oops: Артём (Mckagan), тоже поучаствовал


Top
 Profile E-mail  
 
 
PostPosted: 08 May 2009 
Хиппей (support team)
User avatar
Joined: 30 Jul 2007
Posts: 122693
Lоcаtion: Киев (Kyiv, UA)
Age: 48
Name: Andrey
Спасибо! :dance:


Top
 Profile E-mail  
 
 
PostPosted: 16 Aug 2011 
Работнечег
User avatar
Joined: 28 Aug 2007
Posts: 6364
Lоcаtion: г. Москва
Age: 32
Name: Дима
Image

Band: Nightwing
Album: MY Kingdom Come
Year: 1984 (Remastered in ????)
Label: Zoom Club Records
Genre: Rock
Coutry: UK
Format: Flac + Log + Cue + Covers
Size: 270 Mb

Line-Up:
Gordon Rowley - Bass, Lead & Harmony Vocals
Alex Johnson - Guitars, Lead & Harmony Vocals
Steve Bartley - Drums
Kenny Newton - Keyboards
Max Bacon - Vocals


Tracklist:
01. Back On The Streets 06:09
02. Fingers In The Fire 02:59
03. Night Of Mystery 03:45
04. Give Me The Love That I Want 03:46}
05. Cell 03:15
06. The Devil Walks Behind You 03:50
07. Living Behind The 8 Ball 04:11
08. Men Of War 04:53
09. My Kingdom Come 06:15

LOG
Exact Audio Copy V0.99 prebeta 5 from 4. May 2009

EAC extraction logfile from 15. August 2011, 11:40

Nightwing / My Kingdom Come

Used drive : PIONEER DVD-RW DVR-116D Adapter: 0 ID: 0

Read mode : Secure
Utilize accurate stream : Yes
Defeat audio cache : Yes
Make use of C2 pointers : No

Read offset correction : 96
Overread into Lead-In and Lead-Out : No
Fill up missing offset samples with silence : Yes
Delete leading and trailing silent blocks : No
Null samples used in CRC calculations : Yes
Used interface : Native Win32 interface for Win NT & 2000

Used output format : User Defined Encoder
Selected bitrate : 32 kBit/s
Quality : High
Add ID3 tag : No
Command line compressor : C:\Program Files\Exact Audio Copy\Flac\flac.exe
Additional command line options : -6 -V %s


TOC of the extracted CD

Track | Start | Length | Start sector | End sector
---------------------------------------------------------
1 | 0:00.00 | 6:09.11 | 0 | 27685
2 | 6:09.11 | 2:58.52 | 27686 | 41087
3 | 9:07.63 | 3:44.47 | 41088 | 57934
4 | 12:52.35 | 3:45.68 | 57935 | 74877
5 | 16:38.28 | 3:14.71 | 74878 | 89498
6 | 19:53.24 | 3:50.11 | 89499 | 106759
7 | 23:43.35 | 4:10.72 | 106760 | 125581
8 | 27:54.32 | 4:52.74 | 125582 | 147555
9 | 32:47.31 | 6:14.33 | 147556 | 175638


Range status and errors

Selected range

Filename D:\Музыка\Lossless\Nightwing - My Kingdom Come (1984)(Digitally Remastered)\Nightwing - My Kingdom Come.wav

Suspicious position 0:23:25

Peak level 98.9 %
Range quality 99.8 %
Copy CRC 82933437
Copy finished

There were errors


AccurateRip summary

Track 1 not present in database
Track 2 not present in database
Track 3 not present in database
Track 4 not present in database
Track 5 not present in database
Track 6 not present in database
Track 7 not present in database
Track 8 not present in database
Track 9 not present in database

None of the tracks are present in the AccurateRip database

End of status report

CUE
REM GENRE Rock
REM DATE 1984
REM DISCID 7B092509
REM COMMENT "ExactAudioCopy v0.99pb5"
PERFORMER "Nightwing"
TITLE "My Kingdom Come"
FILE "Nightwing - My Kingdom Come.flac" WAVE
TRACK 01 AUDIO
TITLE "Back On The Streets"
PERFORMER "Nightwing"
INDEX 01 00:00:00
TRACK 02 AUDIO
TITLE "Fingers In The Fire"
PERFORMER "Nightwing"
INDEX 00 06:08:01
INDEX 01 06:09:11
TRACK 03 AUDIO
TITLE "Night Of Mystery"
PERFORMER "Nightwing"
INDEX 00 09:06:53
INDEX 01 09:07:63
TRACK 04 AUDIO
TITLE "Give Me The Love That I Want"
PERFORMER "Nightwing"
INDEX 00 12:51:25
INDEX 01 12:52:35
TRACK 05 AUDIO
TITLE "Cell 151"
PERFORMER "Nightwing"
INDEX 00 16:37:18
INDEX 01 16:38:28
TRACK 06 AUDIO
TITLE "The Devil Walks Behind You"
PERFORMER "Nightwing"
INDEX 00 19:52:14
INDEX 01 19:53:24
TRACK 07 AUDIO
TITLE "Living Behind The 8 Ball"
PERFORMER "Nightwing"
INDEX 00 23:42:25
INDEX 01 23:43:35
TRACK 08 AUDIO
TITLE "Men Of War"
PERFORMER "Nightwing"
INDEX 00 27:53:22
INDEX 01 27:54:32
TRACK 09 AUDIO
TITLE "My Kingdom Come"
PERFORMER "Nightwing"
INDEX 00 32:46:21
INDEX 01 32:47:31

Spectrum
Image


Narod.Ru


Top
 Profile E-mail  
 
 
PostPosted: 16 Aug 2011 
А может смените мне статус?..
User avatar
Joined: 30 Aug 2009
Posts: 824
Lоcаtion: Ачинск, Красноярский край
Age: 35
Name: Стас
:thanx:


Top
 Profile E-mail  
 
 
PostPosted: 16 Aug 2011 
Old Time Rock`n`Roll
User avatar
Joined: 23 Jun 2008
Posts: 3619
Lоcаtion: г.Ульяновск
Age: 43
Name: Константин
Спасибо, попробуем :thanx:


Top
 Profile  
 
 
PostPosted: 16 Aug 2011 
Хиппей (support team)
User avatar
Joined: 30 Jul 2007
Posts: 122693
Lоcаtion: Киев (Kyiv, UA)
Age: 48
Name: Andrey
:thanx:
mirror: MultiUp l Narod

_________________


Top
 Profile E-mail  
 
 
PostPosted: 18 Aug 2011 
Почётный металлург
User avatar
Joined: 15 Sep 2007
Posts: 4360
Lоcаtion: Хабаровск
Age: 61
Name: чуть выше
Мои искренние благодарности!! :thanx: :dance: :meloman:

_________________
Коль будешь людей ты ослами честить,
тебе человеком меж них не прослыть!
(Саади, персидский поэт, 13в.)


Top
 Profile  
 
 
PostPosted: 18 Aug 2011 
Пионэръ
User avatar
Joined: 08 Nov 2010
Posts: 43
Lоcаtion: Россия
Name: Юрий
Спасибо!


Top
 Profile E-mail  
 
Display posts from previous:  Sort by  
Post new topic Reply to topic  [ 8 posts ] 

All times are UTC + 3 hours


Who is online

Users browsing this forum: No registered users and 1 guest


You cannot post new topics in this forum
You cannot reply to topics in this forum
You cannot edit your posts in this forum
You cannot delete your posts in this forum

Search for:
Яндекс.Метрика
Powered by phpBB © 2000, 2002, 2005, 2007 phpBB Group