\m/ 80's metal \m/

Информационно-аналитический форум "80 см пыли" (In Search We Trust) "У нас никто никуда не спешит"
Me For You - http://me-4u.com
It is currently 25 Sep 2021

All times are UTC + 3 hours

Spoiler
Chat - temporary registration for foreign users (please leave your application here)







Post new topic Reply to topic  [ 9 posts ] 
Author Message
 
PostPosted: 08 Feb 2009 
хард н хэвщик (support team)
User avatar
Joined: 02 Jun 2008
Posts: 16881
Lоcаtion: Н.Новгород
Age: 34
Name: Артем
Attachment:
front.jpg


Группа: Neon Cross
Альбом: Neon Cross
Год: 1988 (переиздание 2001)
Лейбл: M8
Стиль: Christian Heavy Metal
Страна:USA
Формат: образ NERO -> WinRAR, самая высокая степень сжатия
Размер: 520 Mb

Tracklist:
1. Heartbreaker 03:49
2. Frontline Life 03:30 [view lyrics]
3. We Are The Children (of Our Lord) 04:45
4. On the Rock 02:40
5. I'm Not Alone 06:00
6. Right Time 04:12
7. Run Into the Light 04:31
8. Far Cry (From Eden) 04:36
9. Outta The Way 03:53
10. Victory 04:05
11. I Need Your Love (Bonus Track) 03:06
12. Son Of God (Bonus Track) 04:21
13. Frontline Life (Bonus Track) 04:23
14. We Are The Children (Of Our Lord) (Bonus Track) 04:55
15. Far Cry (From Eden) (Bonus Track) 04:24
16. Victory (Bonus Track) 04:18
Total playing time 01:07:28

===============================

Narod


Top
 Profile  
 
 
PostPosted: 08 Feb 2009 
Хиппей (support team)
User avatar
Joined: 30 Jul 2007
Posts: 122705
Lоcаtion: Киев (Kyiv, UA)
Age: 48
Name: Andrey
Оце дiло!
Спасибо :true:


Top
 Profile E-mail  
 
 
PostPosted: 08 Feb 2009 
Персональный статус
Joined: 15 Jul 2008
Posts: 340
Age: 13
Name: Алексей
Фолдырь потерял части 4-6.


Top
 Profile  
 
 
PostPosted: 08 Feb 2009 
Хиппей (support team)
User avatar
Joined: 30 Jul 2007
Posts: 122705
Lоcаtion: Киев (Kyiv, UA)
Age: 48
Name: Andrey
Ага. Подеждём еще немножко :oops:


Top
 Profile E-mail  
 
 
PostPosted: 09 Feb 2009 
хард н хэвщик (support team)
User avatar
Joined: 02 Jun 2008
Posts: 16881
Lоcаtion: Н.Новгород
Age: 34
Name: Артем
теперь все нормально, все части можно скачать


Top
 Profile  
 
 
PostPosted: 17 Jul 2009 
Труъ
User avatar
Joined: 14 Jul 2009
Posts: 158
Lоcаtion: Hell Is Here
Age: 51
Name: Adriano
McKagan, Thank You !! :thanx:


Top
 Profile E-mail  
 
 
PostPosted: 07 Dec 2011 
Персональный статус
User avatar
Joined: 02 Jul 2009
Posts: 417
Name: Александр
Не надо на рутркере же есть . Извините :fingal: :oops:


Top
 Profile E-mail  
 
 
PostPosted: 14 Dec 2011 
Хиппей (support team)
User avatar
Joined: 30 Jul 2007
Posts: 122705
Lоcаtion: Киев (Kyiv, UA)
Age: 48
Name: Andrey
Ага http://rutracker.org/forum/viewtopic.php?t=2030527
Позже к нам перелью.

_________________


Top
 Profile E-mail  
 
 
PostPosted: 15 Dec 2011 
Хиппей (support team)
User avatar
Joined: 30 Jul 2007
Posts: 122705
Lоcаtion: Киев (Kyiv, UA)
Age: 48
Name: Andrey
Neon Cross - 1988 - Neon Cross [ape]

Attachment:
neoncross_m8.jpg


http://www.multiupload.com/35P7ZZ7I08

log
Отчёт EAC об извлечении, выполненном 21. июля 2009, 17:00 для диска:
Neon Cross / Neon Cross

Дисковод: _NEC DVD_RW ND-3520A Adapter: 3 ID: 0
Режим чтения: Точный (C2: да, Точный поток: да, Отключение кэша: да)
Коррекция смещения при чтении: 48
Экстрачтение областей Lead-in и Lead-out : Нет

Выходной формат: Внутренние WAV-операции
44.100 Гц; 16 бит; стерео

Другие параметры:
Заполнение пропущенных сэмплов тишиной : Да
Удаление блоков с тишиной в начале и конце : Нет
'Родной' Win32-интерфейс для Win NT/2000


Статус диапазона и ошибки
Выбранный диапазон
Имя файла C:\01\CDImage.wav

Пиковый уровень 100.0 %
Качество диапазона 100.0 %
CRC EACE32C5
Копирование... OK

Ошибок не произошло

Конец отчёта


cue
REM GENRE Metal
REM DATE 2001
REM DISCID E90FD710
REM COMMENT "ExactAudioCopy v0.99pb1"
PERFORMER "Neon Cross"
TITLE "Neon Cross "
FILE "CDImage.ape" WAVE
TRACK 01 AUDIO
TITLE "Heartbreaker"
PERFORMER "Neon Cross"
INDEX 01 00:00:00
TRACK 02 AUDIO
TITLE "Frontline Life"
PERFORMER "Neon Cross"
INDEX 01 03:49:13
TRACK 03 AUDIO
TITLE "We Are The Children (Of Our Lord)"
PERFORMER "Neon Cross"
INDEX 01 07:19:73
TRACK 04 AUDIO
TITLE "On The Rock"
PERFORMER "Neon Cross"
INDEX 01 12:05:55
TRACK 05 AUDIO
TITLE "I'm Not Alone"
PERFORMER "Neon Cross"
INDEX 01 14:46:20
TRACK 06 AUDIO
TITLE "Right Time"
PERFORMER "Neon Cross"
INDEX 01 20:46:35
TRACK 07 AUDIO
TITLE "Run Into The Light"
PERFORMER "Neon Cross"
INDEX 01 24:58:50
TRACK 08 AUDIO
TITLE "Far Cry from Eden"
PERFORMER "Neon Cross"
INDEX 01 29:30:05
TRACK 09 AUDIO
TITLE "Outta the Way"
PERFORMER "Neon Cross"
INDEX 01 34:06:18
TRACK 10 AUDIO
TITLE "Victory"
PERFORMER "Neon Cross"
INDEX 01 37:59:45
TRACK 11 AUDIO
TITLE "I Need Your Love"
PERFORMER "Neon Cross"
INDEX 01 42:05:30
TRACK 12 AUDIO
TITLE "Son Of God"
PERFORMER "Neon Cross"
INDEX 01 45:11:40
TRACK 13 AUDIO
TITLE "Frontline Life"
PERFORMER "Neon Cross"
INDEX 01 49:33:20
TRACK 14 AUDIO
TITLE "We Are The Children (Of Our Lord)"
PERFORMER "Neon Cross"
INDEX 01 53:56:60
TRACK 15 AUDIO
TITLE "Far Cry (From Eden)"
PERFORMER "Neon Cross"
INDEX 01 58:52:51
TRACK 16 AUDIO
TITLE "Victory"
PERFORMER "Neon Cross"
INDEX 01 63:17:07

_________________


Top
 Profile E-mail  
 
Display posts from previous:  Sort by  
Post new topic Reply to topic  [ 9 posts ] 

All times are UTC + 3 hours


Who is online

Users browsing this forum: No registered users and 1 guest


You cannot post new topics in this forum
You cannot reply to topics in this forum
You cannot edit your posts in this forum
You cannot delete your posts in this forum

Search for:
Яндекс.Метрика
cron
Powered by phpBB © 2000, 2002, 2005, 2007 phpBB Group