\m/ 80's metal \m/

Информационно-аналитический форум "80 см пыли" (In Search We Trust) "У нас никто никуда не спешит"
Me For You - http://me-4u.com
It is currently 22 Sep 2021

All times are UTC + 3 hours

Spoiler
Chat - temporary registration for foreign users (please leave your application here)







Post new topic Reply to topic  [ 5 posts ] 
Author Message
 
PostPosted: 06 Jun 2015 
Генеральный thrasher
User avatar
Joined: 03 Oct 2008
Posts: 3751
Lоcаtion: Ханты-Мансийский АО
Age: 46
Name: Сергей
Image

Year:1991 (2013 Re-Issue)
Style:Thrash Metal
Country:Brazil
Audio:Flac+Cue+Log+Scans
Size:547Mb
Source:my CD
Label:Rising Records

Tracklist:
01. Bloodless Award 03:28
02. Rousing Lie 03:25
03. The Sun... (Doesn´t Shine To Everyone) 03:32
04. Tortuous Ways 02:03
05. Dying Slowly 03:05
06. Blood And Ache 05:52
07. Animal 03:20
08. Depressive Dementia 05:38
09. Eternal Eyes 02:18
Depressive Dementia Demo 1990:
10. Intro/Animal 04:47
11. Depressive Dementia 04:44
12. Rousing Lie 03:30
13. Tortuous Ways 02:02
14. Conjurer Paradise 07:41
Your Inside in Flames Demo 1988:
15. Blood & Ache 06:55
16. Violence And Death 08:17
17. Toxic Confusion 07:08

"Cue"
REM GENRE "Progressive Thrash Metal"
REM DATE 2013
REM DISCID FE123F11
REM COMMENT "ExactAudioCopy v0.99pb5"
PERFORMER "Nephastus"
TITLE "Tortuous Ways"
FILE "Nephastus - Tortuous Ways.flac" WAVE
TRACK 01 AUDIO
TITLE "Bloodless Award"
PERFORMER "Nephastus"
INDEX 01 00:00:00
TRACK 02 AUDIO
TITLE "Rousing Lie"
PERFORMER "Nephastus"
INDEX 01 03:28:59
TRACK 03 AUDIO
TITLE "The Sun... (Doesn't Shine to Everyone)"
PERFORMER "Nephastus"
INDEX 01 06:53:60
TRACK 04 AUDIO
TITLE "Tortuous Ways"
PERFORMER "Nephastus"
INDEX 01 10:26:12
TRACK 05 AUDIO
TITLE "Dying Slowly"
PERFORMER "Nephastus"
INDEX 01 12:30:00
TRACK 06 AUDIO
TITLE "Blood And Ache"
PERFORMER "Nephastus"
INDEX 01 15:35:59
TRACK 07 AUDIO
TITLE "Animal"
PERFORMER "Nephastus"
INDEX 01 21:27:65
TRACK 08 AUDIO
TITLE "Depressive Dementia"
PERFORMER "Nephastus"
INDEX 01 24:48:12
TRACK 09 AUDIO
TITLE "Eternal Eyes"
PERFORMER "Nephastus"
INDEX 01 30:26:18
TRACK 10 AUDIO
TITLE "Intro/Animal (Depressive Dementia Demo 1990)"
PERFORMER "Nephastus"
INDEX 01 32:44:36
TRACK 11 AUDIO
TITLE "Depressive Dementia (Depressive Dementia Demo 1990)"
PERFORMER "Nephastus"
INDEX 01 37:31:59
TRACK 12 AUDIO
TITLE "Rousing Lie (Depressive Dementia Demo 1990)"
PERFORMER "Nephastus"
INDEX 01 42:16:48
TRACK 13 AUDIO
TITLE "Tortuous Ways (Depressive Dementia Demo 1990)"
PERFORMER "Nephastus"
INDEX 01 45:46:53
TRACK 14 AUDIO
TITLE "Conjurer Paradise (Depressive Dementia Demo 1990)"
PERFORMER "Nephastus"
INDEX 01 47:49:03
TRACK 15 AUDIO
TITLE "Blood & Ache (Your Inside In Flames Demo 1988)"
PERFORMER "Nephastus"
INDEX 01 55:30:07
TRACK 16 AUDIO
TITLE "Violence And Death (Your Inside In Flames Demo 1988)"
PERFORMER "Nephastus"
INDEX 01 62:25:50
TRACK 17 AUDIO
TITLE "Toxic Confusion (Your Inside in Flames Demo 1988)"
PERFORMER "Nephastus"
INDEX 01 70:42:64

"Log"
Exact Audio Copy V0.99 prebeta 5 from 4. May 2009

Отчёт EAC об извлечении, выполненном 4. июня 2015, 12:35

Nephastus / Tortuous Ways

Дисковод: MATSHITADVD-RAM UJ8A0AS Adapter: 0 ID: 1

Режим чтения : Достоверность
Использование точного потока : Да
Отключение кэша аудио : Да
Использование указателей C2 : Нет

Коррекция смещения при чтении : 102
Способность читать области Lead-in и Lead-out : Нет
Заполнение пропущенных сэмплов тишиной : Да
Удаление блоков с тишиной в начале и конце : Нет
При вычислениях CRC использовались нулевые сэмплы : Да
Интерфейс : Встроенный Win32-интерфейс для Win NT/2000

Выходной формат : Пользовательский кодировщик
Выбранный битрейт : 1024 kBit/s
Качество : Высокий
Добавление ID3-тэга : Нет
Утилита сжатия : C:\Program Files\Exact Audio Copy\FLAC\FLAC.EXE
Дополнительные параметры : -6 -V -T "ARTIST=%a" -T "TITLE=%t" -T "ALBUM=%g" -T "DATE=%y" -T "TRACKNUMBER=%n" -T "GENRE=%m" -T "COMMENT=%e" %s -o %d


TOC извлечённого CD

Трек | Старт | Длительность | Начальный сектор | Конечный сектор
---------------------------------------------------------------------
1 | 0:00.00 | 3:28.59 | 0 | 15658
2 | 3:28.59 | 3:25.01 | 15659 | 31034
3 | 6:53.60 | 3:32.27 | 31035 | 46961
4 | 10:26.12 | 2:03.63 | 46962 | 56249
5 | 12:30.00 | 3:05.59 | 56250 | 70183
6 | 15:35.59 | 5:52.06 | 70184 | 96589
7 | 21:27.65 | 3:20.22 | 96590 | 111611
8 | 24:48.12 | 5:38.06 | 111612 | 136967
9 | 30:26.18 | 2:18.18 | 136968 | 147335
10 | 32:44.36 | 4:47.23 | 147336 | 168883
11 | 37:31.59 | 4:44.64 | 168884 | 190247
12 | 42:16.48 | 3:30.05 | 190248 | 206002
13 | 45:46.53 | 2:02.25 | 206003 | 215177
14 | 47:49.03 | 7:41.04 | 215178 | 249756
15 | 55:30.07 | 6:55.43 | 249757 | 280924
16 | 62:25.50 | 8:17.14 | 280925 | 318213
17 | 70:42.64 | 7:08.56 | 318214 | 350369


Характеристики диапазона извлечения и сообщения об ошибках

Выбранный диапазон

Имя файла C:\Users\эксперт\Music\Nephastus - Tortuous Ways.wav

Пиковый уровень 98.8 %
Качество диапазона 100.0 %
CRC копии 39DA3BC4
Копирование... OK

Ошибок не произошло


AccurateRip: сводка

Трек 1 нет в базе данных
Трек 2 нет в базе данных
Трек 3 нет в базе данных
Трек 4 нет в базе данных
Трек 5 нет в базе данных
Трек 6 нет в базе данных
Трек 7 нет в базе данных
Трек 8 нет в базе данных
Трек 9 нет в базе данных
Трек 10 нет в базе данных
Трек 11 нет в базе данных
Трек 12 нет в базе данных
Трек 13 нет в базе данных
Трек 14 нет в базе данных
Трек 15 нет в базе данных
Трек 16 нет в базе данных
Трек 17 нет в базе данных

Ни одного трека нет в базе AccurateRip

Конец отчёта


Tortuous Ways


Top
 Profile  
 
 
PostPosted: 07 Jun 2015 
Прокъмитолист
User avatar
Joined: 12 Aug 2007
Posts: 6868
Lоcаtion: Санктъ-Петербуркъ
Age: 53
Name: Олекъ
:thanx:

_________________
прокъметол - это музыко, от которово есть прок (ы)


Top
 Profile  
 
 
PostPosted: 16 Jun 2015 
Работнечег
User avatar
Joined: 28 Aug 2007
Posts: 6364
Lоcаtion: г. Москва
Age: 32
Name: Дима
Злобный такой альбом! Спасибо! :dance: :thanx:


Top
 Profile E-mail  
 
 
PostPosted: 26 Jun 2015 
Доктор энтомологии
User avatar
Joined: 22 Jan 2009
Posts: 10420
Lоcаtion: Даугавпилс
Age: 46
Name: Алексей
Хорошая группа, с удовольствием прослушал. Эдакий непричесанный мрачнявый трэшак по типу не совсем совсем старой, но классической, лучших времен (88-91), Сепультуры. Такое мне больше по нраву, чем прилизанные современные альбомы.


Top
 Profile  
 
 
PostPosted: 26 Jun 2015 
Генеральный thrasher
User avatar
Joined: 03 Oct 2008
Posts: 3751
Lоcаtion: Ханты-Мансийский АО
Age: 46
Name: Сергей
Хорошая группа, с удовольствием прослушал. Эдакий непричесанный мрачнявый трэшак по типу не совсем совсем старой, но классической, лучших времен (88-91), Сепультуры. Такое мне больше по нраву, чем прилизанные современные альбомы.


Абсолютно согласен,Лёш.


Top
 Profile  
 
Display posts from previous:  Sort by  
Post new topic Reply to topic  [ 5 posts ] 

All times are UTC + 3 hours


Who is online

Users browsing this forum: No registered users and 1 guest


You cannot post new topics in this forum
You cannot reply to topics in this forum
You cannot edit your posts in this forum
You cannot delete your posts in this forum

Search for:
Яндекс.Метрика
Powered by phpBB © 2000, 2002, 2005, 2007 phpBB Group