\m/ 80's metal \m/

Информационно-аналитический форум "80 см пыли" (In Search We Trust) "У нас никто никуда не спешит"
Me For You - http://me-4u.com
It is currently 23 Sep 2021

All times are UTC + 3 hours

Spoiler
Chat - temporary registration for foreign users (please leave your application here)







Post new topic Reply to topic  [ 15 posts ] 
Author Message
 
PostPosted: 07 Mar 2015 
Генеральный thrasher
User avatar
Joined: 03 Oct 2008
Posts: 3751
Lоcаtion: Ханты-Мансийский АО
Age: 46
Name: Сергей
Image

Year:1988 (2001 Re-Issue)
Style:Thrash Metal
Country:Mexico
Audio:Flac+Cue+Log+Scans
Size:285Mb
Source:my CD
Label:Discos y Cintas Denver
Catalog ID: CD-DSD-6115

Tracklist:
01. Guerra Inútil 03:48
02. Debes Morir 03:57
03. Invasión Nuclear 04:44
04. S.P.G. 04:34
05. Muerte Y Tortura 03:16
06. Holocausto (Parte I) 04:50
07. Holocausto (Parte II) 04:01
07. Destrucción 04:07
08. Pecado Mortal 03:44
09. Grita Rock 04:02
Cue"
REM GENRE "Thrash Metal"
REM DATE 1988
REM DISCID 7B09B70A
REM COMMENT "ExactAudioCopy v0.99pb5"
PERFORMER "Next"
TITLE "Invasión Nuclear"
FILE "Next - Invasión Nuclear.flac" WAVE
TRACK 01 AUDIO
TITLE "Guerra Inútil"
PERFORMER "Next"
INDEX 01 00:00:00
TRACK 02 AUDIO
TITLE "Debes Morir"
PERFORMER "Next"
INDEX 00 03:48:67
INDEX 01 03:50:67
TRACK 03 AUDIO
TITLE "Invasión Nuclear"
PERFORMER "Next"
INDEX 00 07:48:12
INDEX 01 07:50:12
TRACK 04 AUDIO
TITLE "S.P.G."
PERFORMER "Next"
INDEX 00 12:34:44
INDEX 01 12:36:44
TRACK 05 AUDIO
TITLE "Muerte Y Tortura"
PERFORMER "Next"
INDEX 00 17:11:08
INDEX 01 17:13:08
TRACK 06 AUDIO
TITLE "Holocausto (Parte I)"
PERFORMER "Next"
INDEX 00 20:29:49
INDEX 01 20:31:49
TRACK 07 AUDIO
TITLE "Holocausto (Parte II)"
PERFORMER "Next"
INDEX 00 25:22:00
INDEX 01 25:24:00
TRACK 08 AUDIO
TITLE "Destrucción"
PERFORMER "Next"
INDEX 00 29:25:22
INDEX 01 29:27:22
TRACK 09 AUDIO
TITLE "Pecado Mortal"
PERFORMER "Next"
INDEX 00 33:35:20
INDEX 01 33:37:20
TRACK 10 AUDIO
TITLE "Grita Rock"
PERFORMER "Next"
INDEX 00 37:22:05
INDEX 01 37:24:05

"Log"
Exact Audio Copy V0.99 prebeta 5 from 4. May 2009

Отчёт EAC об извлечении, выполненном 24. января 2014, 16:01

Next / Invasión Nuclear

Дисковод: MATSHITADVD-RAM UJ8A0AS Adapter: 0 ID: 1

Режим чтения : Достоверность
Использование точного потока : Да
Отключение кэша аудио : Да
Использование указателей C2 : Нет

Коррекция смещения при чтении : 102
Способность читать области Lead-in и Lead-out : Нет
Заполнение пропущенных сэмплов тишиной : Да
Удаление блоков с тишиной в начале и конце : Нет
При вычислениях CRC использовались нулевые сэмплы : Да
Интерфейс : Встроенный Win32-интерфейс для Win NT/2000

Выходной формат : Пользовательский кодировщик
Выбранный битрейт : 1024 kBit/s
Качество : Высокий
Добавление ID3-тэга : Нет
Утилита сжатия : C:\Program Files\Exact Audio Copy\FLAC\FLAC.EXE
Дополнительные параметры : -6 -V -T "ARTIST=%a" -T "TITLE=%t" -T "ALBUM=%g" -T "DATE=%y" -T "TRACKNUMBER=%n" -T "GENRE=%m" -T "COMMENT=%e" %s -o %d


TOC извлечённого CD

Трек | Старт | Длительность | Начальный сектор | Конечный сектор
---------------------------------------------------------------------
1 | 0:00.00 | 3:50.67 | 0 | 17316
2 | 3:50.67 | 3:59.20 | 17317 | 35261
3 | 7:50.12 | 4:46.32 | 35262 | 56743
4 | 12:36.44 | 4:36.39 | 56744 | 77482
5 | 17:13.08 | 3:18.41 | 77483 | 92373
6 | 20:31.49 | 4:52.26 | 92374 | 114299
7 | 25:24.00 | 4:03.22 | 114300 | 132546
8 | 29:27.22 | 4:09.73 | 132547 | 151294
9 | 33:37.20 | 3:46.60 | 151295 | 168304
10 | 37:24.05 | 4:02.73 | 168305 | 186527


Характеристики диапазона извлечения и сообщения об ошибках

Выбранный диапазон

Имя файла C:\Users\эксперт\Music\Next - Invasión Nuclear.wav

Пиковый уровень 100.0 %
Качество диапазона 100.0 %
CRC копии A50DC8F5
Копирование... OK

Ошибок не произошло


AccurateRip: сводка

Трек 1 нет в базе данных
Трек 2 нет в базе данных
Трек 3 нет в базе данных
Трек 4 нет в базе данных
Трек 5 нет в базе данных
Трек 6 нет в базе данных
Трек 7 нет в базе данных
Трек 8 нет в базе данных
Трек 9 нет в базе данных
Трек 10 нет в базе данных

Ни одного трека нет в базе AccurateRip

Конец отчёта

Invasión Nuclear

Image

Year:1989 (2001 Re-Issue)
Style:Thrash Metal
Country:Mexico
Audio:Flac+Cue+Log+Scans
Size:279Mb
Source:my CD
Label:Discos y Cintas Denver
Catalog ID: CD-DSD-6114

Tracklist:
01. El Juicio 04:47
02. Poco Tiempo 03:42
03. Vamos A Escapar 04:31
04. Mirando Hacia Atrás 04:04
05. Mundo de Mutantes 04:47
06. Silencio Nocturno 03:00
07. Cámara de Gas 04:38
08. Norma Jean Beaker 01:39
09. Dipsomanía 03:57
"Cue"
REM GENRE "Thrash Metal"
REM DATE 2001
REM DISCID 83084C09
REM COMMENT "ExactAudioCopy v0.99pb5"
PERFORMER "Next"
TITLE "El Juicio"
FILE "Next - El Juicio.flac" WAVE
TRACK 01 AUDIO
TITLE "El Juicio"
PERFORMER "Next"
FLAGS DCP
INDEX 01 00:00:00
TRACK 02 AUDIO
TITLE "Poco Tiempo"
PERFORMER "Next"
FLAGS DCP
INDEX 00 04:47:25
INDEX 01 04:49:25
TRACK 03 AUDIO
TITLE "Vamos a Escapar"
PERFORMER "Next"
FLAGS DCP
INDEX 00 08:31:55
INDEX 01 08:33:55
TRACK 04 AUDIO
TITLE "Mirando Hacia Atrás"
PERFORMER "Next"
FLAGS DCP
INDEX 00 13:04:70
INDEX 01 13:06:70
TRACK 05 AUDIO
TITLE "Mundo de Mutantes"
PERFORMER "Next"
FLAGS DCP
INDEX 00 17:11:59
INDEX 01 17:13:59
TRACK 06 AUDIO
TITLE "Silencio Nocturno"
PERFORMER "Next"
FLAGS DCP
INDEX 00 22:01:31
INDEX 01 22:03:31
TRACK 07 AUDIO
TITLE "Cámara de Gas"
PERFORMER "Next"
FLAGS DCP
INDEX 00 25:03:32
INDEX 01 25:05:32
TRACK 08 AUDIO
TITLE "Norma Jean Beaker"
PERFORMER "Next"
FLAGS DCP
INDEX 00 29:44:06
INDEX 01 29:46:06
TRACK 09 AUDIO
TITLE "Dipsomanía"
PERFORMER "Next"
FLAGS DCP
INDEX 00 31:25:21
INDEX 01 31:27:21

"Log"
Exact Audio Copy V0.99 prebeta 5 from 4. May 2009

Отчёт EAC об извлечении, выполненном 24. января 2014, 12:51

Next / El Juicio

Дисковод: MATSHITADVD-RAM UJ8A0AS Adapter: 0 ID: 1

Режим чтения : Достоверность
Использование точного потока : Да
Отключение кэша аудио : Да
Использование указателей C2 : Нет

Коррекция смещения при чтении : 102
Способность читать области Lead-in и Lead-out : Нет
Заполнение пропущенных сэмплов тишиной : Да
Удаление блоков с тишиной в начале и конце : Нет
При вычислениях CRC использовались нулевые сэмплы : Да
Интерфейс : Встроенный Win32-интерфейс для Win NT/2000

Выходной формат : Пользовательский кодировщик
Выбранный битрейт : 1024 kBit/s
Качество : Высокий
Добавление ID3-тэга : Нет
Утилита сжатия : C:\Program Files\Exact Audio Copy\FLAC\FLAC.EXE
Дополнительные параметры : -6 -V -T "ARTIST=%a" -T "TITLE=%t" -T "ALBUM=%g" -T "DATE=%y" -T "TRACKNUMBER=%n" -T "GENRE=%m" -T "COMMENT=%e" %s -o %d


TOC извлечённого CD

Трек | Старт | Длительность | Начальный сектор | Конечный сектор
---------------------------------------------------------------------
1 | 0:00.00 | 4:49.25 | 0 | 21699
2 | 4:49.25 | 3:44.30 | 21700 | 38529
3 | 8:33.55 | 4:33.15 | 38530 | 59019
4 | 13:06.70 | 4:06.64 | 59020 | 77533
5 | 17:13.59 | 4:49.47 | 77534 | 99255
6 | 22:03.31 | 3:02.01 | 99256 | 112906
7 | 25:05.32 | 4:40.49 | 112907 | 133955
8 | 29:46.06 | 1:41.15 | 133956 | 141545
9 | 31:27.21 | 3:57.48 | 141546 | 159368


Характеристики диапазона извлечения и сообщения об ошибках

Выбранный диапазон

Имя файла C:\Users\эксперт\Music\Next - El Juicio.wav

Пиковый уровень 99.7 %
Качество диапазона 100.0 %
CRC копии 0CBD4578
Копирование... OK

Ошибок не произошло


AccurateRip: сводка

Трек 1 нет в базе данных
Трек 2 нет в базе данных
Трек 3 нет в базе данных
Трек 4 нет в базе данных
Трек 5 нет в базе данных
Трек 6 нет в базе данных
Трек 7 нет в базе данных
Трек 8 нет в базе данных
Трек 9 нет в базе данных

Ни одного трека нет в базе AccurateRip

Конец отчёта


El Juicio

Image

Year:1992
Style:Thrash Metal
Country:Mexico
Audio:Flac+Cue+Log+Scans
Size:244Mb
Source:my CD
Label:Discos y Cintas Denver
Catalog ID: CD-DCD-3018

Tracklist:
01. Epidemia Fatal IV 03:54
02. Pelea O Muere 04:08
03. Tu Sepulcro 04:27
04. Ataque Brutal 04:28
05. Repression Total 02:43
06. Agonizando 04:46
07. Estas Terminado 03:25
08. Zona Perdida 03:30
09. 2:32 02:35
"Cue"
REM GENRE "Thrash Metal"
REM DATE 1992
REM DISCID 77080C09
REM COMMENT "ExactAudioCopy v0.99pb5"
PERFORMER "Next"
TITLE "Pelea O Muere"
FILE "Next - Pelea O Muere.flac" WAVE
TRACK 01 AUDIO
TITLE "Epidemia Fatal IV"
PERFORMER "Next"
INDEX 00 00:00:00
INDEX 01 00:00:32
TRACK 02 AUDIO
TITLE "Pelea O Muere"
PERFORMER "Next"
INDEX 00 03:55:19
INDEX 01 03:57:65
TRACK 03 AUDIO
TITLE "Tu Sepulcro"
PERFORMER "Next"
INDEX 00 08:06:04
INDEX 01 08:08:40
TRACK 04 AUDIO
TITLE "Ataque Brutal"
PERFORMER "Next"
INDEX 00 12:35:42
INDEX 01 12:38:00
TRACK 05 AUDIO
TITLE "Represion Total"
PERFORMER "Next"
INDEX 00 17:06:22
INDEX 01 17:08:60
TRACK 06 AUDIO
TITLE "Agonizando"
PERFORMER "Next"
INDEX 00 19:52:40
INDEX 01 19:55:02
TRACK 07 AUDIO
TITLE "Estas Terminado"
PERFORMER "Next"
INDEX 00 24:41:57
INDEX 01 24:44:20
TRACK 08 AUDIO
TITLE "Zona Perdida"
PERFORMER "Next"
INDEX 00 28:09:29
INDEX 01 28:11:67
TRACK 09 AUDIO
TITLE "2:32"
PERFORMER "Next"
INDEX 00 31:42:44
INDEX 01 31:45:05

"Log"
Exact Audio Copy V0.99 prebeta 5 from 4. May 2009

Отчёт EAC об извлечении, выполненном 24. января 2014, 13:57

Next / Pelea O Muere

Дисковод: MATSHITADVD-RAM UJ8A0AS Adapter: 0 ID: 1

Режим чтения : Достоверность
Использование точного потока : Да
Отключение кэша аудио : Да
Использование указателей C2 : Нет

Коррекция смещения при чтении : 102
Способность читать области Lead-in и Lead-out : Нет
Заполнение пропущенных сэмплов тишиной : Да
Удаление блоков с тишиной в начале и конце : Нет
При вычислениях CRC использовались нулевые сэмплы : Да
Интерфейс : Встроенный Win32-интерфейс для Win NT/2000

Выходной формат : Пользовательский кодировщик
Выбранный битрейт : 1024 kBit/s
Качество : Высокий
Добавление ID3-тэга : Нет
Утилита сжатия : C:\Program Files\Exact Audio Copy\FLAC\FLAC.EXE
Дополнительные параметры : -6 -V -T "ARTIST=%a" -T "TITLE=%t" -T "ALBUM=%g" -T "DATE=%y" -T "TRACKNUMBER=%n" -T "GENRE=%m" -T "COMMENT=%e" %s -o %d


TOC извлечённого CD

Трек | Старт | Длительность | Начальный сектор | Конечный сектор
---------------------------------------------------------------------
1 | 0:00.32 | 3:57.33 | 32 | 17839
2 | 3:57.65 | 4:10.50 | 17840 | 36639
3 | 8:08.40 | 4:29.35 | 36640 | 56849
4 | 12:38.00 | 4:30.60 | 56850 | 77159
5 | 17:08.60 | 2:46.17 | 77160 | 89626
6 | 19:55.02 | 4:49.18 | 89627 | 111319
7 | 24:44.20 | 3:27.47 | 111320 | 126891
8 | 28:11.67 | 3:33.13 | 126892 | 142879
9 | 31:45.05 | 2:35.07 | 142880 | 154511


Характеристики диапазона извлечения и сообщения об ошибках

Выбранный диапазон

Имя файла C:\Users\эксперт\Music\Next - Pelea O Muere.wav

Пиковый уровень 85.4 %
Качество диапазона 100.0 %
CRC копии 40BA83F7
Копирование... OK

Ошибок не произошло


AccurateRip: сводка

Трек 1 точность не определена (достоверность 1) [05D7C15F], AccurateRip вернул [61A115DE]
Трек 2 точность не определена (достоверность 1) [52BBAFD4], AccurateRip вернул [CAF84EF0]
Трек 3 точность не определена (достоверность 1) [3D16C33B], AccurateRip вернул [3B80B960]
Трек 4 точность не определена (достоверность 1) [DEDCC45F], AccurateRip вернул [F39323DB]
Трек 5 точность не определена (достоверность 1) [5A8D3519], AccurateRip вернул [AF285B6B]
Трек 6 точность не определена (достоверность 1) [9B32BEE2], AccurateRip вернул [B6D24992]
Трек 7 точность не определена (достоверность 1) [6D84A747], AccurateRip вернул [FFABB6F7]
Трек 8 точность не определена (достоверность 1) [61212382], AccurateRip вернул [43019519]
Трек 9 точность не определена (достоверность 1) [390FF882], AccurateRip вернул [B059E6ED]

Ни один трек не прошёл проверки на точность
В вашей базе может быть иной вариант штамповки диска

Конец отчёта


Pelea O Muere

Image

Year:1993
Style:Thrash Metal
Country:Mexico
Audio:Flac+Cue+Log+Scans
Size:205Mb
Source:my CD
Label:Discos y Cintas Denver
Catalog ID: CD-DCD-3047

Tracklist:
01. Sin Control 05:58
02. Ciudad De Cagadas 01:48
03. Nada Es Real 05:01
04. Furia 03:30
05. Todo Por Nada 05:38
06. Y Los Restos 03:39
07. Luna Liena 03:38
08. 1,2,3,4 02:43
"Cue"
REM GENRE "Thrash Metal"
REM DATE 1993
REM DISCID 69076A08
REM COMMENT "ExactAudioCopy v0.99pb5"
PERFORMER "Next"
TITLE "...Y Los Restos"
FILE "Next - ...Y Los Restos.flac" WAVE
TRACK 01 AUDIO
TITLE "Sin Control "
PERFORMER "Next"
INDEX 01 00:00:00
TRACK 02 AUDIO
TITLE "Ciudad De Cagadas"
PERFORMER "Next"
INDEX 01 05:38:08
TRACK 03 AUDIO
TITLE "Nada Es Real"
PERFORMER "Next"
INDEX 01 07:26:25
TRACK 04 AUDIO
TITLE "Furia"
PERFORMER "Next"
INDEX 01 12:28:10
TRACK 05 AUDIO
TITLE "Todo Por Nada"
PERFORMER "Next"
INDEX 01 15:58:33
TRACK 06 AUDIO
TITLE "Y Los Restos"
PERFORMER "Next"
INDEX 01 21:37:15
TRACK 07 AUDIO
TITLE "Luna Llena"
PERFORMER "Next"
INDEX 01 25:16:43
TRACK 08 AUDIO
TITLE "1,2,3,4"
PERFORMER "Next"
INDEX 01 28:54:70

"Log"
Exact Audio Copy V0.99 prebeta 5 from 4. May 2009

Отчёт EAC об извлечении, выполненном 25. января 2014, 14:47

Next / ...Y Los Restos

Дисковод: MATSHITADVD-RAM UJ8A0AS Adapter: 0 ID: 1

Режим чтения : Достоверность
Использование точного потока : Да
Отключение кэша аудио : Да
Использование указателей C2 : Нет

Коррекция смещения при чтении : 102
Способность читать области Lead-in и Lead-out : Нет
Заполнение пропущенных сэмплов тишиной : Да
Удаление блоков с тишиной в начале и конце : Нет
При вычислениях CRC использовались нулевые сэмплы : Да
Интерфейс : Встроенный Win32-интерфейс для Win NT/2000

Выходной формат : Пользовательский кодировщик
Выбранный битрейт : 1024 kBit/s
Качество : Высокий
Добавление ID3-тэга : Нет
Утилита сжатия : C:\Program Files\Exact Audio Copy\FLAC\FLAC.EXE
Дополнительные параметры : -6 -V -T "ARTIST=%a" -T "TITLE=%t" -T "ALBUM=%g" -T "DATE=%y" -T "TRACKNUMBER=%n" -T "GENRE=%m" -T "COMMENT=%e" %s -o %d


TOC извлечённого CD

Трек | Старт | Длительность | Начальный сектор | Конечный сектор
---------------------------------------------------------------------
1 | 0:00.00 | 5:38.08 | 0 | 25357
2 | 5:38.08 | 1:48.17 | 25358 | 33474
3 | 7:26.25 | 5:01.60 | 33475 | 56109
4 | 12:28.10 | 3:30.23 | 56110 | 71882
5 | 15:58.33 | 5:38.57 | 71883 | 97289
6 | 21:37.15 | 3:39.28 | 97290 | 113742
7 | 25:16.43 | 3:38.27 | 113743 | 130119
8 | 28:54.70 | 2:43.30 | 130120 | 142374


Характеристики диапазона извлечения и сообщения об ошибках

Выбранный диапазон

Имя файла C:\Users\эксперт\Music\Next - ...Y Los Restos.wav

Пиковый уровень 100.0 %
Качество диапазона 100.0 %
CRC копии 12F5D801
Копирование... OK

Ошибок не произошло


AccurateRip: сводка

Трек 1 нет в базе данных
Трек 2 нет в базе данных
Трек 3 нет в базе данных
Трек 4 нет в базе данных
Трек 5 нет в базе данных
Трек 6 нет в базе данных
Трек 7 нет в базе данных
Трек 8 нет в базе данных

Ни одного трека нет в базе AccurateRip

Конец отчёта


...Y Los Restos

Image

Year:1996
Style:Thrash Metal
Country:Mexico
Audio:Flac+Cue+Log+Scans
Size:354Mb
Source:my CD
Label:Discos y Cintas Denver
Catalog ID: DCD-CD 3097

Tracklist:
01. No Mereces Vivir 04:32
02. Slam 02:03
03. Rabia 04:25
04. Suicidio 03:28
05. Dias Obscuros 06:53
06. Desesperacion 05:23
07. Cenizas 04:16
08. Desorden Mental 03:24
09. Espejo 03:31
10. Ya No Quiero Seguir 07:05
11. You Deserve Not To Live 04:36
12. Ya No Quiero Seguir (acoustic) 04:07
"Cue"
REM GENRE "Thrash Metal"
REM DATE 1996
REM DISCID B50C9D0C
REM COMMENT "ExactAudioCopy v0.99pb5"
PERFORMER "Next"
TITLE "MCMXCVIDC"
FILE "Next - MCMXCVIDC.flac" WAVE
TRACK 01 AUDIO
TITLE "No Mereces Vivir"
PERFORMER "Next"
INDEX 00 00:00:00
INDEX 01 00:00:30
TRACK 02 AUDIO
TITLE "Slam"
PERFORMER "Next"
INDEX 01 04:33:00
TRACK 03 AUDIO
TITLE "Rabia"
PERFORMER "Next"
INDEX 01 06:36:08
TRACK 04 AUDIO
TITLE "Suicidio"
PERFORMER "Next"
INDEX 01 11:01:55
TRACK 05 AUDIO
TITLE "Dias Obscuros"
PERFORMER "Next"
INDEX 01 14:30:27
TRACK 06 AUDIO
TITLE "Desesperacion"
PERFORMER "Next"
INDEX 01 21:23:47
TRACK 07 AUDIO
TITLE "Cenizas"
PERFORMER "Next"
INDEX 01 26:47:26
TRACK 08 AUDIO
TITLE "Desorden Mental"
PERFORMER "Next"
INDEX 01 31:03:46
TRACK 09 AUDIO
TITLE "Espejo"
PERFORMER "Next"
INDEX 01 34:28:12
TRACK 10 AUDIO
TITLE "Ya No Quiero Seguir"
PERFORMER "Next"
INDEX 01 37:59:52
TRACK 11 AUDIO
TITLE "You Deserve Not To Live"
PERFORMER "Next"
INDEX 01 45:05:49
TRACK 12 AUDIO
TITLE "Ya No Quiero Seguir (acoustic)"
PERFORMER "Next"
INDEX 01 49:42:02

"Log"
Exact Audio Copy V0.99 prebeta 5 from 4. May 2009

Отчёт EAC об извлечении, выполненном 28. января 2014, 13:06

Next / MCMXCVIDC

Дисковод: MATSHITADVD-RAM UJ8A0AS Adapter: 0 ID: 1

Режим чтения : Достоверность
Использование точного потока : Да
Отключение кэша аудио : Да
Использование указателей C2 : Нет

Коррекция смещения при чтении : 102
Способность читать области Lead-in и Lead-out : Нет
Заполнение пропущенных сэмплов тишиной : Да
Удаление блоков с тишиной в начале и конце : Нет
При вычислениях CRC использовались нулевые сэмплы : Да
Интерфейс : Встроенный Win32-интерфейс для Win NT/2000

Выходной формат : Пользовательский кодировщик
Выбранный битрейт : 1024 kBit/s
Качество : Высокий
Добавление ID3-тэга : Нет
Утилита сжатия : C:\Program Files\Exact Audio Copy\FLAC\FLAC.EXE
Дополнительные параметры : -6 -V -T "ARTIST=%a" -T "TITLE=%t" -T "ALBUM=%g" -T "DATE=%y" -T "TRACKNUMBER=%n" -T "GENRE=%m" -T "COMMENT=%e" %s -o %d


TOC извлечённого CD

Трек | Старт | Длительность | Начальный сектор | Конечный сектор
---------------------------------------------------------------------
1 | 0:00.30 | 4:32.45 | 30 | 20474
2 | 4:33.00 | 2:03.08 | 20475 | 29707
3 | 6:36.08 | 4:25.47 | 29708 | 49629
4 | 11:01.55 | 3:28.47 | 49630 | 65276
5 | 14:30.27 | 6:53.20 | 65277 | 96271
6 | 21:23.47 | 5:23.54 | 96272 | 120550
7 | 26:47.26 | 4:16.20 | 120551 | 139770
8 | 31:03.46 | 3:24.41 | 139771 | 155111
9 | 34:28.12 | 3:31.40 | 155112 | 170976
10 | 37:59.52 | 7:05.72 | 170977 | 202923
11 | 45:05.49 | 4:36.28 | 202924 | 223651
12 | 49:42.02 | 4:07.62 | 223652 | 242238


Характеристики диапазона извлечения и сообщения об ошибках

Выбранный диапазон

Имя файла C:\Users\эксперт\Music\Next - MCMXCVIDC.wav

Пиковый уровень 100.0 %
Качество диапазона 100.0 %
CRC копии 2775457A
Копирование... OK

Ошибок не произошло


AccurateRip: сводка

Трек 1 нет в базе данных
Трек 2 нет в базе данных
Трек 3 нет в базе данных
Трек 4 нет в базе данных
Трек 5 нет в базе данных
Трек 6 нет в базе данных
Трек 7 нет в базе данных
Трек 8 нет в базе данных
Трек 9 нет в базе данных
Трек 10 нет в базе данных
Трек 11 нет в базе данных
Трек 12 нет в базе данных

Ни одного трека нет в базе AccurateRip

Конец отчёта


MCMXCVI


Top
 Profile  
 
 
PostPosted: 07 Mar 2015 
Я набрал 1000 сообщений!
User avatar
Joined: 02 Feb 2009
Posts: 1000
Lоcаtion: из Тулы
Age: 47
Name: Максим
все проснулись

_________________
КМА


Top
 Profile  
 
 
PostPosted: 07 Mar 2015 
Я набрал 1000 сообщений!
User avatar
Joined: 02 Feb 2009
Posts: 1000
Lоcаtion: из Тулы
Age: 47
Name: Максим
можно сюда добавить и рип моего пласта?

_________________
КМА


Top
 Profile  
 
 
PostPosted: 07 Mar 2015 
Генеральный thrasher
User avatar
Joined: 03 Oct 2008
Posts: 3751
Lоcаtion: Ханты-Мансийский АО
Age: 46
Name: Сергей
Смотри сам,Максим!


Top
 Profile  
 
 
PostPosted: 07 Mar 2015 
Я набрал 1000 сообщений!
User avatar
Joined: 02 Feb 2009
Posts: 1000
Lоcаtion: из Тулы
Age: 47
Name: Максим
или его в виниловые лоси, а сюда ссылку ...?

_________________
КМА


Top
 Profile  
 
 
PostPosted: 07 Mar 2015 
Генеральный thrasher
User avatar
Joined: 03 Oct 2008
Posts: 3751
Lоcаtion: Ханты-Мансийский АО
Age: 46
Name: Сергей
Давай так :true:


Top
 Profile  
 
 
PostPosted: 07 Mar 2015 
Я набрал 1000 сообщений!
User avatar
Joined: 02 Feb 2009
Posts: 1000
Lоcаtion: из Тулы
Age: 47
Name: Максим
готово
виниловый рип альбома Next ‎– Silencio Nocturno

_________________
КМА


Top
 Profile  
 
 
PostPosted: 07 Mar 2015 
Генеральный thrasher
User avatar
Joined: 03 Oct 2008
Posts: 3751
Lоcаtion: Ханты-Мансийский АО
Age: 46
Name: Сергей
Ну вот и славненько! :smile:


Top
 Profile  
 
 
PostPosted: 07 Mar 2015 
Работнечег
User avatar
Joined: 28 Aug 2007
Posts: 6364
Lоcаtion: г. Москва
Age: 32
Name: Дима
Скоко музыки в качестве повалило :true: не знаешь, когда слушать :( За группу спасибо, не знаком! С какого альбома лучше начать, Серег?


Top
 Profile E-mail  
 
 
PostPosted: 07 Mar 2015 
Генеральный thrasher
User avatar
Joined: 03 Oct 2008
Posts: 3751
Lоcаtion: Ханты-Мансийский АО
Age: 46
Name: Сергей
Не знаю,Дим!Мне все нравятся.Иначе и брать бы не стал.И Максима лишний раз не тревожил бы (спасибо ему за помощь в покупке).


Top
 Profile  
 
 
PostPosted: 07 Mar 2015 
Я набрал 1000 сообщений!
User avatar
Joined: 02 Feb 2009
Posts: 1000
Lоcаtion: из Тулы
Age: 47
Name: Максим
Скоко музыки в качестве повалило :true: не знаешь, когда слушать :( За группу спасибо, не знаком! С какого альбома лучше начать, Серег?

начни сначала, так же оно к нам приходило... :true:

_________________
КМА


Top
 Profile  
 
 
PostPosted: 07 Mar 2015 
Я набрал 1000 сообщений!
User avatar
Joined: 02 Feb 2009
Posts: 1000
Lоcаtion: из Тулы
Age: 47
Name: Максим
Не знаю,Дим!Мне все нравятся.Иначе и брать бы не стал.И Максима лишний раз не тревожил бы (спасибо ему за помощь в покупке).

да не за что Серег...это ж для нас всех надо... :true:

_________________
КМА


Top
 Profile  
 
 
PostPosted: 07 Mar 2015 
Генеральный thrasher
User avatar
Joined: 03 Oct 2008
Posts: 3751
Lоcаtion: Ханты-Мансийский АО
Age: 46
Name: Сергей
Хорошо,купили давно.Сейчас бы и рыпаться не стал с таким то курсом... :cry:


Top
 Profile  
 
 
PostPosted: 07 Mar 2015 
Я набрал 1000 сообщений!
User avatar
Joined: 02 Feb 2009
Posts: 1000
Lоcаtion: из Тулы
Age: 47
Name: Максим
Хорошо,купили давно.Сейчас бы и рыпаться не стал с таким то курсом... :cry:

я, например если чего решил купить и деньги есть -- покупаю сразу чтоб потом не жалеть(курс или пропало что...)

_________________
КМА


Top
 Profile  
 
 
PostPosted: 07 Mar 2015 
Генеральный thrasher
User avatar
Joined: 03 Oct 2008
Posts: 3751
Lоcаtion: Ханты-Мансийский АО
Age: 46
Name: Сергей
Не знаю,Максим.Взял бы кое-что из новых бразильских релизов.Но цена меня не устраивает.


Top
 Profile  
 
Display posts from previous:  Sort by  
Post new topic Reply to topic  [ 15 posts ] 

All times are UTC + 3 hours


Who is online

Users browsing this forum: No registered users and 1 guest


You cannot post new topics in this forum
You cannot reply to topics in this forum
You cannot edit your posts in this forum
You cannot delete your posts in this forum

Search for:
Яндекс.Метрика
Powered by phpBB © 2000, 2002, 2005, 2007 phpBB Group