\m/ 80's metal \m/

Информационно-аналитический форум "80 см пыли" (In Search We Trust) "У нас никто никуда не спешит"
Me For You - http://me-4u.com
It is currently 27 Sep 2021

All times are UTC + 3 hours

Spoiler
Chat - temporary registration for foreign users (please leave your application here)







Post new topic Reply to topic  [ 5 posts ] 
Author Message
 
PostPosted: 08 Apr 2014 
Пионэръ
User avatar
Joined: 15 Mar 2011
Posts: 17
Lоcаtion: Spain
Name: Tuco Pacífico
Super proyecto de banda de Ron Asheton y Dennis Thompson de The Stooges y MC5, que no llegó a nada y solo grabaron dos demos:
La primera es puro rock asesino de Detroit con un cantante que me recuerda a Bon Scott y la segunda suena a Heavy Rock en plan UFO o algo así, y a mi juicio menos interesante y estimulante.

Image

Band: The New Order
Album: Declaration of War
Year: 1987
Country: U.S.A.
Genre: Detroit Killer Rock
Format: CDRip (FLAC + CUE + LOG + Covers)
Length: 32:25 min
Size: 214 mb
Release: Tuco Pacífico[EsparaelMetal]

Image

Image

Tracklist:

Demo 1975:
Lucky Strike
Declaration Of War
Hollywood Holidays
Sidewinder

Demo 1976:
I Can't Quit Ya
Rock 'N' Roll Soldiers
Of Another World
1975

Скачать:
MEGA


LOG
Code:
Exact Audio Copy V1.0 beta 3 from 29. August 2011

EAC extraction logfile from 8. April 2014, 8:38

The New Order / Declaration of War

Used drive  : TSSTcorpCDDVDW SE-S084F   Adapter: 2  ID: 0

Read mode               : Secure
Utilize accurate stream : Yes
Defeat audio cache      : Yes
Make use of C2 pointers : No

Read offset correction                      : 6
Overread into Lead-In and Lead-Out          : No
Fill up missing offset samples with silence : Yes
Delete leading and trailing silent blocks   : No
Null samples used in CRC calculations       : Yes
Used interface                    : Native Win32 interface for Win NT & 2000

Used output format : Internal WAV Routines
Sample format      : 44.100 Hz; 16 Bit; Stereo

TOC of the extracted CD

       Track |   Start  |  Length  | Start sector | End sector   
      ---------------------------------------------------------
          1  |  0:00.33 |  3:56.65 |        33    |    17797     
          2  |  3:57.23 |  2:51.40 |     17798    |    30662     
          3  |  6:48.63 |  3:58.02 |     30663    |    48514     
          4  | 10:46.65 |  3:16.70 |     48515    |    63284     
          5  | 14:03.60 |  3:05.45 |     63285    |    77204     
          6  | 17:09.30 |  4:04.73 |     77205    |    95577     
          7  | 21:14.28 |  4:49.05 |     95578    |   117257     
          8  | 26:03.33 |  6:22.02 |    117258    |   145909     

Range status and errors

Selected range

       Filename D:\Tuco Pacífico for EPM\The New Order\The New Order - Declaration of War.wav

       Peak level 100.0 %
       Extraction speed 1.6 X
       Range quality 100.0 %
       Test CRC 0D938C8F
       Copy CRC 0D938C8F
       Copy OK

No errors occurred

     
AccurateRip summary
     
Track  1  not present in database
Track  2  not present in database
Track  3  not present in database
Track  4  not present in database
Track  5  not present in database
Track  6  not present in database
Track  7  not present in database
Track  8  not present in database
     
None of the tracks are present in the AccurateRip database

End of status report

---- CUETools DB Plugin V2.1.3

[CTDB TOCID: z5UgPryUZnNjK7KuEIanFgw9O7A-] disk not present in database, Submit result: discs with pregaps not supported in this protocol version

==== Log checksum D9281C37A3CA12A5B21A78A348096107EAE44EA050C4E1F92FB09CD86F2A851D ====


Top
 Profile E-mail  
 
 
PostPosted: 08 Apr 2014 
Доктор энтомологии
User avatar
Joined: 22 Jan 2009
Posts: 10420
Lоcаtion: Даугавпилс
Age: 46
Name: Алексей
:shok: чувак с ножиком похож на один хулиганский персонаж из культового "Заводного апельсина" :true:
Image
качнем, послушаем :thanx:


Top
 Profile  
 
 
PostPosted: 08 Apr 2014 
Хиппей (support team)
User avatar
Joined: 30 Jul 2007
Posts: 122732
Lоcаtion: Киев (Kyiv, UA)
Age: 48
Name: Andrey
Tuco Pacífico wrote:
Genre: Detroit Killer Rock

:crazy: Post-Punk :pardon:

Thnax Tuco :thanx:

mirror: Narod l M-Cloud

_________________


Top
 Profile E-mail  
 
 
PostPosted: 08 Apr 2014 
Хиппей (support team)
User avatar
Joined: 30 Jul 2007
Posts: 122732
Lоcаtion: Киев (Kyiv, UA)
Age: 48
Name: Andrey
И всё же хард-рок здесь есть :oops:

_________________


Top
 Profile E-mail  
 
 
PostPosted: 09 Apr 2014 
Зарегился вот...
User avatar
Joined: 06 Apr 2013
Posts: 5
Lоcаtion: Isezu
Age: 7
Name: hansabnsj
прото-панк/хард-рок это, были активны в период 1975-1976 весь материал тогда и записан был а изданно все только в конце 80-х, тут Рон Эштон (на фото) и прочии ребятки засвечены причастные к становлению панк-рока!)


Top
 Profile  
 
Display posts from previous:  Sort by  
Post new topic Reply to topic  [ 5 posts ] 

All times are UTC + 3 hours


Who is online

Users browsing this forum: No registered users and 1 guest


You cannot post new topics in this forum
You cannot reply to topics in this forum
You cannot edit your posts in this forum
You cannot delete your posts in this forum

Search for:
Яндекс.Метрика
cron
Powered by phpBB © 2000, 2002, 2005, 2007 phpBB Group