\m/ 80's metal \m/

Информационно-аналитический форум "80 см пыли" (In Search We Trust) "У нас никто никуда не спешит"
Me For You - http://me-4u.com
It is currently 26 Sep 2021

All times are UTC + 3 hours

Spoiler
Chat - temporary registration for foreign users (please leave your application here)







Post new topic Reply to topic  [ 63 posts ]  Go to page Previous  1, 2, 3, 4  Next
Author Message
 
PostPosted: 22 Apr 2015 
Прокъмитолист
User avatar
Joined: 12 Aug 2007
Posts: 6868
Lоcаtion: Санктъ-Петербуркъ
Age: 53
Name: Олекъ
моноваръ? зобралъ :thanx:

_________________
прокъметол - это музыко, от которово есть прок (ы)


Top
 Profile  
 
 
PostPosted: 22 Apr 2015 
Хиппей (support team)
User avatar
Joined: 30 Jul 2007
Posts: 122713
Lоcаtion: Киев (Kyiv, UA)
Age: 48
Name: Andrey
spiralarch wrote:
моноваръ?

Не совсем =)
Явно это лишь альбом 4 года такой намановаристый :vic:

_________________


Top
 Profile E-mail  
 
 
PostPosted: 22 Apr 2015 
Хиппей (support team)
User avatar
Joined: 30 Jul 2007
Posts: 122713
Lоcаtion: Киев (Kyiv, UA)
Age: 48
Name: Andrey
О, оказывается, как мне тута напомнили в аську, я почти все альбомы уже оговаривал ранее :arrow: viewtopic.php?p=201688#p201688
Бывает занятно себя же и перечитать :crazy: :dance:

_________________


Top
 Profile E-mail  
 
 
PostPosted: 22 Apr 2015 
Хиппей (support team)
User avatar
Joined: 30 Jul 2007
Posts: 122713
Lоcаtion: Киев (Kyiv, UA)
Age: 48
Name: Andrey
О, так группа ожила снова и пишет новый альбом https://www.youtube.com/watch?v=NAAsTEHOkgY :dance:

_________________


Top
 Profile E-mail  
 
 
PostPosted: 23 Apr 2015 
Пионэръ
Joined: 25 Aug 2011
Posts: 48
Lоcаtion: Worl
Name: Zoltan Tivesko
:thanx:


Top
 Profile E-mail  
 
 
PostPosted: 23 Apr 2015 
Хиппей (support team)
User avatar
Joined: 30 Jul 2007
Posts: 122713
Lоcаtion: Киев (Kyiv, UA)
Age: 48
Name: Andrey
Novon - 2006 - The Eagle Flies Again [flac]

Image Image Image Image Image

mirror: iFolder l M-Cloud l Narod

Странно, но и следующий альбом сейчас показался очень хорошим. Хоть и более лёгким и мелодичным более.
Тем не менее, всё отлично, всё хорошо у группы :meloman:
В последнем трэке, вернее, после него уже, группа показала (озвучила) всю серьезность отношения к подобной музыке :dance:

6+/10

log
Exact Audio Copy V1.0 beta 2 from 29. April 2011

Отчёт EAC об извлечении, выполненном 31. января 2014, 12:35

Novon / The Eagle Flies Again

Дисковод: HL-DT-STDVD-RAM GSA-E60N Adapter: 2 ID: 0

Режим чтения : Достоверность
Использование точного потока : Да
Отключение кэша аудио : Да
Использование указателей C2 : Нет

Коррекция смещения при чтении : 102
Способность читать области Lead-in и Lead-out : Нет
Заполнение пропущенных сэмплов тишиной : Да
Удаление блоков с тишиной в начале и конце : Нет
При вычислениях CRC использовались нулевые сэмплы : Да
Интерфейс : Установленный внешний ASPI-интерфейс

Выходной формат : Пользовательский кодировщик
Выбранный битрейт : 1024 kBit/s
Качество : Высокий
Добавление ID3-тега : Нет
Утилита сжатия : C:\Program Files (x86)\Exact Audio Copy\FLAC\FLAC.EXE
Дополнительные параметры : -V -8 -T "Date=%year%" -T "Genre=%genre%" %source%


TOC извлечённого CD

Трек | Старт | Длительность | Начальный сектор | Конечный сектор
---------------------------------------------------------------------
1 | 0:00.00 | 5:53.03 | 0 | 26477
2 | 5:53.03 | 4:26.03 | 26478 | 46430
3 | 10:19.06 | 5:27.00 | 46431 | 70955
4 | 15:46.06 | 6:31.04 | 70956 | 100284
5 | 22:17.10 | 5:35.26 | 100285 | 125435
6 | 27:52.36 | 5:27.23 | 125436 | 149983
7 | 33:19.59 | 5:02.60 | 149984 | 172693
8 | 38:22.44 | 7:24.12 | 172694 | 206005
9 | 45:46.56 | 7:17.04 | 206006 | 238784


Характеристики диапазона извлечения и сообщения об ошибках

Выбранный диапазон

Имя файла D:\EAC\Novon - The Eagle Flies Again\Novon - The Eagle Flies Again.wav

Пиковый уровень 100.0 %
Скорость извлечения 2.2 X
Качество диапазона 99.9 %
CRC копии BF800678
Копирование... OK

Ошибок не произошло


AccurateRip: сводка

Трек 1 отсутствует в базе данных
Трек 2 отсутствует в базе данных
Трек 3 отсутствует в базе данных
Трек 4 отсутствует в базе данных
Трек 5 отсутствует в базе данных
Трек 6 отсутствует в базе данных
Трек 7 отсутствует в базе данных
Трек 8 отсутствует в базе данных
Трек 9 отсутствует в базе данных

Ни одного трека нет в базе AccurateRip

Конец отчёта

---- CUETools DB Plugin V2.1.3

[CTDB TOCID: _YW6BGNB8QI8aXdkUUv9nK.aAtg-] disk not present in database, Submit result: _YW6BGNB8QI8aXdkUUv9nK.aAtg- has been uploaded


==== Контрольная сумма отчёта A88F68D1BAE76672FD57074ED317E743305A7EB700540EC6B15AEBD77469906D ====

cue
REM GENRE "Heavy Metal"
REM DATE 2006
REM DISCID 700C6F09
REM COMMENT "ExactAudioCopy v1.0b2"
PERFORMER "Novon"
TITLE "The Eagle Flies Again"
FILE "Novon - The Eagle Flies Again.flac" WAVE
TRACK 01 AUDIO
TITLE "Few Minutes "
PERFORMER "Novon"
INDEX 01 00:00:00
TRACK 02 AUDIO
TITLE "Run Through the Night "
PERFORMER "Novon"
INDEX 01 05:53:03
TRACK 03 AUDIO
TITLE "The Eagle Flies Again "
PERFORMER "Novon"
INDEX 01 10:19:06
TRACK 04 AUDIO
TITLE "Times of War "
PERFORMER "Novon"
INDEX 01 15:46:06
TRACK 05 AUDIO
TITLE "When Heaven Cries "
PERFORMER "Novon"
INDEX 01 22:17:10
TRACK 06 AUDIO
TITLE "Falling in Love "
PERFORMER "Novon"
INDEX 01 27:52:36
TRACK 07 AUDIO
TITLE "Riding on the Storm "
PERFORMER "Novon"
INDEX 01 33:19:59
TRACK 08 AUDIO
TITLE "Steel to Steel "
PERFORMER "Novon"
INDEX 01 38:22:44
TRACK 09 AUDIO
TITLE "We Will Rise "
PERFORMER "Novon"
INDEX 01 45:46:56


Image Image Image Image Image

_________________


Top
 Profile E-mail  
 
 
PostPosted: 23 Apr 2015 
Прокъмитолист
User avatar
Joined: 12 Aug 2007
Posts: 6868
Lоcаtion: Санктъ-Петербуркъ
Age: 53
Name: Олекъ
:thanx:

_________________
прокъметол - это музыко, от которово есть прок (ы)


Top
 Profile  
 
 
PostPosted: 24 Apr 2015 
Хиппей (support team)
User avatar
Joined: 30 Jul 2007
Posts: 122713
Lоcаtion: Киев (Kyiv, UA)
Age: 48
Name: Andrey
NoVon - 2009 - Worlds Of Metal [flac]

Image Image Image Image

Image Image Image Image Image

mirror: iFolrer l Narod l M-Cloud

Группа продолжает радовать :dance:
Этот альбом так же похож на предыдущий, но ещё больше додали (добавили?) в развитии сами музыканты.
Теперь здесь помимо весёлого и типа эпичного хэви (он же - мелодичный павер) можно услышать и классический германский хэви 80-х.
Так что просьба и Виталия и тем паче Егора, оценить данную работу. Явно это ваше :lob: :lob: :lob:
Хотя, для Егора, возможно, скоростей маловато тут будет... :vic:

7/10

log
Exact Audio Copy V1.0 beta 2 from 29. April 2011

Отчёт EAC об извлечении, выполненном 31. января 2014, 13:06

Novon / Worlds Of Metal

Дисковод: HL-DT-STDVD-RAM GSA-E60N Adapter: 2 ID: 0

Режим чтения : Достоверность
Использование точного потока : Да
Отключение кэша аудио : Да
Использование указателей C2 : Нет

Коррекция смещения при чтении : 102
Способность читать области Lead-in и Lead-out : Нет
Заполнение пропущенных сэмплов тишиной : Да
Удаление блоков с тишиной в начале и конце : Нет
При вычислениях CRC использовались нулевые сэмплы : Да
Интерфейс : Установленный внешний ASPI-интерфейс

Выходной формат : Пользовательский кодировщик
Выбранный битрейт : 1024 kBit/s
Качество : Высокий
Добавление ID3-тега : Нет
Утилита сжатия : C:\Program Files (x86)\Exact Audio Copy\FLAC\FLAC.EXE
Дополнительные параметры : -V -8 -T "Date=%year%" -T "Genre=%genre%" %source%


TOC извлечённого CD

Трек | Старт | Длительность | Начальный сектор | Конечный сектор
---------------------------------------------------------------------
1 | 0:00.00 | 5:47.49 | 0 | 26073
2 | 5:47.49 | 5:38.27 | 26074 | 51450
3 | 11:26.01 | 4:45.29 | 51451 | 72854
4 | 16:11.30 | 7:24.34 | 72855 | 106188
5 | 23:35.64 | 4:26.20 | 106189 | 126158
6 | 28:02.09 | 5:39.13 | 126159 | 151596
7 | 33:41.22 | 4:32.26 | 151597 | 172022
8 | 38:13.48 | 0:45.32 | 172023 | 175429
9 | 38:59.05 | 6:19.54 | 175430 | 203908
10 | 45:18.59 | 5:15.50 | 203909 | 227583
11 | 50:34.34 | 5:20.29 | 227584 | 251612


Характеристики диапазона извлечения и сообщения об ошибках

Выбранный диапазон

Имя файла D:\EAC\Novon - Worlds Of Metal\Novon - Worlds Of Metal.wav

Пиковый уровень 100.0 %
Скорость извлечения 2.7 X
Качество диапазона 99.9 %
CRC копии CE13E67D
Копирование... OK

Ошибок не произошло


AccurateRip: сводка

Трек 1 отсутствует в базе данных
Трек 2 отсутствует в базе данных
Трек 3 отсутствует в базе данных
Трек 4 отсутствует в базе данных
Трек 5 отсутствует в базе данных
Трек 6 отсутствует в базе данных
Трек 7 отсутствует в базе данных
Трек 8 отсутствует в базе данных
Трек 9 отсутствует в базе данных
Трек 10 отсутствует в базе данных
Трек 11 отсутствует в базе данных

Ни одного трека нет в базе AccurateRip

Конец отчёта

---- CUETools DB Plugin V2.1.3

[CTDB TOCID: LASI5xK9y8OODyGZzUK0UecZ.Q0-] disk not present in database, Submit result: LASI5xK9y8OODyGZzUK0UecZ.Q0- has been uploaded


==== Контрольная сумма отчёта F383F835EFDC3334EF3A4CFFB2EAEBCD471D73383940A913021D6FCB88428ACD ====

cue
REM GENRE "Heavy Metal"
REM DATE 2009
REM DISCID 950D1A0B
REM COMMENT "ExactAudioCopy v1.0b2"
PERFORMER "Novon"
TITLE "Worlds Of Metal"
FILE "Novon - Worlds Of Metal.flac" WAVE
TRACK 01 AUDIO
TITLE "All For One"
PERFORMER "Novon"
INDEX 01 00:00:00
TRACK 02 AUDIO
TITLE "Hearts On Fire"
PERFORMER "Novon"
INDEX 00 05:45:49
INDEX 01 05:47:49
TRACK 03 AUDIO
TITLE "Show No Fear"
PERFORMER "Novon"
INDEX 00 11:24:01
INDEX 01 11:26:01
TRACK 04 AUDIO
TITLE "Worlds Of Metal"
PERFORMER "Novon"
INDEX 00 16:09:30
INDEX 01 16:11:30
TRACK 05 AUDIO
TITLE "Firght Warrior"
PERFORMER "Novon"
INDEX 00 23:33:64
INDEX 01 23:35:64
TRACK 06 AUDIO
TITLE "Flying High"
PERFORMER "Novon"
INDEX 00 28:00:09
INDEX 01 28:02:09
TRACK 07 AUDIO
TITLE "Feel The Silence"
PERFORMER "Novon"
INDEX 00 33:39:22
INDEX 01 33:41:22
TRACK 08 AUDIO
TITLE "Calm Before The Storm"
PERFORMER "Novon"
INDEX 00 38:11:48
INDEX 01 38:13:48
TRACK 09 AUDIO
TITLE "Revolution In Hell"
PERFORMER "Novon"
INDEX 00 38:57:05
INDEX 01 38:59:05
TRACK 10 AUDIO
TITLE "We Will Rise"
PERFORMER "Novon"
INDEX 00 45:16:59
INDEX 01 45:18:59
TRACK 11 AUDIO
TITLE "Judgement Day"
PERFORMER "Novon"
INDEX 00 50:32:34
INDEX 01 50:34:34

_________________


Top
 Profile E-mail  
 
 
PostPosted: 25 Apr 2015 
Хиппей (support team)
User avatar
Joined: 30 Jul 2007
Posts: 122713
Lоcаtion: Киев (Kyiv, UA)
Age: 48
Name: Andrey
NoVon - 2013 - Kill Roi [flac]

Image Image Image Image Image Image

Image Image Image

mirror: iFolder l Narod l M-Cloud

Музыка группы стала ещё разнообразнее, но... кажись ей это не пошло на пользу.
Во всяком случае, альбом мне показался шагом назад - мягковато слишком, слишком мелодично, вяловато и затянуто.
На 6-й песенке баба появилась на бэках. Зачем? :vic:
Ой, она и дальше подпевает. Или то не девушка? :crazy:

6/10

log
Exact Audio Copy V1.0 beta 2 from 29. April 2011

Отчёт EAC об извлечении, выполненном 31. января 2014, 13:43

Novon / Kill Roi

Дисковод: HL-DT-STDVD-RAM GSA-E60N Adapter: 2 ID: 0

Режим чтения : Достоверность
Использование точного потока : Да
Отключение кэша аудио : Да
Использование указателей C2 : Нет

Коррекция смещения при чтении : 102
Способность читать области Lead-in и Lead-out : Нет
Заполнение пропущенных сэмплов тишиной : Да
Удаление блоков с тишиной в начале и конце : Нет
При вычислениях CRC использовались нулевые сэмплы : Да
Интерфейс : Установленный внешний ASPI-интерфейс

Выходной формат : Пользовательский кодировщик
Выбранный битрейт : 1024 kBit/s
Качество : Высокий
Добавление ID3-тега : Нет
Утилита сжатия : C:\Program Files (x86)\Exact Audio Copy\FLAC\FLAC.EXE
Дополнительные параметры : -V -8 -T "Date=%year%" -T "Genre=%genre%" %source%


TOC извлечённого CD

Трек | Старт | Длительность | Начальный сектор | Конечный сектор
---------------------------------------------------------------------
1 | 0:00.00 | 5:51.06 | 0 | 26330
2 | 5:51.06 | 4:17.18 | 26331 | 45623
3 | 10:08.24 | 5:43.24 | 45624 | 71372
4 | 15:51.48 | 6:26.52 | 71373 | 100374
5 | 22:18.25 | 5:18.74 | 100375 | 124298
6 | 27:37.24 | 5:03.57 | 124299 | 147080
7 | 32:41.06 | 6:34.47 | 147081 | 176677
8 | 39:15.53 | 6:02.11 | 176678 | 203838
9 | 45:17.64 | 4:56.31 | 203839 | 226069
10 | 50:14.20 | 4:36.73 | 226070 | 246842
11 | 54:51.18 | 5:18.20 | 246843 | 270712


Характеристики диапазона извлечения и сообщения об ошибках

Выбранный диапазон

Имя файла D:\EAC\Novon - Kill Roi\Novon - Kill Roi.wav

Пиковый уровень 98.8 %
Скорость извлечения 2.8 X
Качество диапазона 99.9 %
CRC копии 4FDFCA69
Копирование... OK

Ошибок не произошло


AccurateRip: сводка

Трек 1 отсутствует в базе данных
Трек 2 отсутствует в базе данных
Трек 3 отсутствует в базе данных
Трек 4 отсутствует в базе данных
Трек 5 отсутствует в базе данных
Трек 6 отсутствует в базе данных
Трек 7 отсутствует в базе данных
Трек 8 отсутствует в базе данных
Трек 9 отсутствует в базе данных
Трек 10 отсутствует в базе данных
Трек 11 отсутствует в базе данных

Ни одного трека нет в базе AccurateRip

Конец отчёта

---- CUETools DB Plugin V2.1.3

[CTDB TOCID: L1z56LZQdNXJBWwIkUcGxqWkytQ-] disk not present in database, Submit result: L1z56LZQdNXJBWwIkUcGxqWkytQ- has been uploaded


==== Контрольная сумма отчёта 049F472EB84D4D7DCB6405531029AEE75F92DB35A033AE1BD6952D23274B7323 ====

cue
REM GENRE "Heavy Metal"
REM DATE 2013
REM DISCID 940E190B
REM COMMENT "ExactAudioCopy v1.0b2"
PERFORMER "Novon"
TITLE "Kill Roi"
FILE "Novon - Kill Roi.flac" WAVE
TRACK 01 AUDIO
TITLE "Fly Like An Eagle"
PERFORMER "Novon"
INDEX 01 00:00:00
TRACK 02 AUDIO
TITLE "Fighting"
PERFORMER "Novon"
INDEX 00 05:49:06
INDEX 01 05:51:06
TRACK 03 AUDIO
TITLE "Kill Roi"
PERFORMER "Novon"
INDEX 00 10:06:24
INDEX 01 10:08:24
TRACK 04 AUDIO
TITLE "Matter Of Life And Death"
PERFORMER "Novon"
INDEX 00 15:49:48
INDEX 01 15:51:48
TRACK 05 AUDIO
TITLE "We Have A Dream"
PERFORMER "Novon"
INDEX 00 22:16:25
INDEX 01 22:18:25
TRACK 06 AUDIO
TITLE "Warriors In Bloody Chains"
PERFORMER "Novon"
INDEX 00 27:35:24
INDEX 01 27:37:24
TRACK 07 AUDIO
TITLE "New King"
PERFORMER "Novon"
INDEX 00 32:39:06
INDEX 01 32:41:06
TRACK 08 AUDIO
TITLE "Peace Of Mind"
PERFORMER "Novon"
INDEX 00 39:13:53
INDEX 01 39:15:53
TRACK 09 AUDIO
TITLE "Don┤t Look Back"
PERFORMER "Novon"
INDEX 00 45:15:64
INDEX 01 45:17:64
TRACK 10 AUDIO
TITLE "Glorious"
PERFORMER "Novon"
INDEX 00 50:12:20
INDEX 01 50:14:20
TRACK 11 AUDIO
TITLE "Back For Metal"
PERFORMER "Novon"
INDEX 00 54:49:18
INDEX 01 54:51:18

_________________


Top
 Profile E-mail  
 
 
PostPosted: 25 Apr 2015 
Пионэръ
Joined: 25 Aug 2011
Posts: 48
Lоcаtion: Worl
Name: Zoltan Tivesko
:thanx: :thanx: :thanx: !!!


Top
 Profile E-mail  
 
 
PostPosted: 28 Mar 2017 
Partisanen - nicht kapitulieren!!
User avatar
Joined: 25 Dec 2011
Posts: 7737
Lоcаtion: партизанские леса
Age: 49
Name: Владимир
NoVoN 2017 - The Warrior's Fate
Image

Label : Independent
Tracks : 14
Playtime : 01:10:25
Size : 161,80 MB
Codec : MPEG 1 Layer III / 320 kbps

Tracklist :
01. Gates Of Hell (01:32)
02. This It's My Life (04:25)
03. Bad Boys (05:27)
04. The Warrior's Fate (06:11)
05. Fight Fire (05:01)
06. Let The Fire Burn Forever (04:30)
07. Blood (06:13)
08. Bang Down (04:59)
09. Dynamite (05:16)
10. Shout At The Devil (06:16)
11. March Of The Warriors (02:42)
12. Warriors United (05:12)
13. Push, Push For Metal (05:49)
14. We're Gonna Fight (06:45)

Image

_________________
One more beer and Heavy Metal and I'm just fine!
старовер, куле... слово "блин" - до сих пор через Ъ говорю


Top
 Profile E-mail  
 
 
PostPosted: 28 Mar 2017 
Хиппей (support team)
User avatar
Joined: 30 Jul 2007
Posts: 122713
Lоcаtion: Киев (Kyiv, UA)
Age: 48
Name: Andrey
:thanx:

mirror: Depos l Narod l M-Cloud

_________________


Top
 Profile E-mail  
 
 
PostPosted: 28 Mar 2017 
Хиппей (support team)
User avatar
Joined: 30 Jul 2007
Posts: 122713
Lоcаtion: Киев (Kyiv, UA)
Age: 48
Name: Andrey
Как-то свежий альбом не покатил :(
Забурела группа, стала писать хоть и хитовые, но монументальные и однотипные, неинтересные, в общем, песни и помногу.
Альбом малость утомил.
И явно не в прекрасной погоде дело на улице :scratch:

4/10

_________________


Top
 Profile E-mail  
 
 
PostPosted: 28 Mar 2017 
Partisanen - nicht kapitulieren!!
User avatar
Joined: 25 Dec 2011
Posts: 7737
Lоcаtion: партизанские леса
Age: 49
Name: Владимир
угу, альбом после первого прослушивания показался несколько монотонным и затянутым... надо ещё пару раз послушать :scratch:

_________________
One more beer and Heavy Metal and I'm just fine!
старовер, куле... слово "блин" - до сих пор через Ъ говорю


Top
 Profile E-mail  
 
 
PostPosted: 28 Mar 2017 
Хиппей (support team)
User avatar
Joined: 30 Jul 2007
Posts: 122713
Lоcаtion: Киев (Kyiv, UA)
Age: 48
Name: Andrey
32warlord1 wrote:
14. We're Gonna Fight (06:45)

Самый активный и весёлый хит группы, как по мне, вообще лишён скорости и "мяса" :(

_________________


Top
 Profile E-mail  
 
 
PostPosted: 28 Mar 2017 
Хиппей (support team)
User avatar
Joined: 30 Jul 2007
Posts: 122713
Lоcаtion: Киев (Kyiv, UA)
Age: 48
Name: Andrey
32warlord1 wrote:
05. Fight Fire (05:01)

Эх, всё же это главный хит альбома :lob:
Анатолию явно очень понравится :kro:

_________________


Top
 Profile E-mail  
 
 
PostPosted: 08 Nov 2017 
семерых одним ударом
Joined: 18 Aug 2007
Posts: 4784
Lоcаtion: Владивосток
Age: 46
Name: Николай Николаевич
Scatterbrain wrote:
Лёше Энтомологисту попробую посоветовать послушать, а авось понравится

послушал - кто-то группу как одну из лучших на тракторе рекламировал. Ну ооочень стандартно, какой-то выхолощенный running wild без харизмы.


Top
 Profile  
 
 
PostPosted: 08 Nov 2017 
Доктор энтомологии
User avatar
Joined: 22 Jan 2009
Posts: 10420
Lоcаtion: Даугавпилс
Age: 46
Name: Алексей
Quote:
Лёше Энтомологисту попробую посоветовать послушать, а авось понравится

Вроде слушал, но уже не помню что ребята играют. Если бы понравился альбом и группа, в памяти бы отложилось что-нить... В блокнотик впишу группу в очередь ..."Новонь" :pavlik:


Top
 Profile  
 
 
PostPosted: 08 Nov 2017 
Рарник и трушник
User avatar
Joined: 25 Dec 2009
Posts: 9627
Lоcаtion: Москва
Age: 56
Name: Виталий
aziel wrote:
Ну ооочень стандартно, какой-то выхолощенный running wild без харизмы.

Entomologist wrote:
Вроде слушал, но уже не помню что ребята играют.

Кстати, ранние местами на Trance и Trancemission похожи, особенно вокалом. А последний чота как Раннинги не ассоциируется. :vic:


Top
 Profile  
 
 
PostPosted: 08 Nov 2017 
Хиппей (support team)
User avatar
Joined: 30 Jul 2007
Posts: 122713
Lоcаtion: Киев (Kyiv, UA)
Age: 48
Name: Andrey
Scatterbrain wrote:
Лёше Энтомологисту попробую посоветовать послушать, а авось понравится

послушал - кто-то группу как одну из лучших на тракторе рекламировал. Ну ооочень стандартно, какой-то выхолощенный running wild без харизмы.

:shok:
Где-ты здесь Раннигов ты услышал, Коля?
Насколько помню, все альбомы у группы весьма своеобразны и хитовы очень :meloman:

_________________


Top
 Profile E-mail  
 
Display posts from previous:  Sort by  
Post new topic Reply to topic  [ 63 posts ]  Go to page Previous  1, 2, 3, 4  Next

All times are UTC + 3 hours


Who is online

Users browsing this forum: No registered users and 1 guest


You cannot post new topics in this forum
You cannot reply to topics in this forum
You cannot edit your posts in this forum
You cannot delete your posts in this forum

Search for:
Яндекс.Метрика
Powered by phpBB © 2000, 2002, 2005, 2007 phpBB Group