\m/ 80's metal \m/

Информационно-аналитический форум "80 см пыли" (In Search We Trust) "У нас никто никуда не спешит"
Me For You - http://me-4u.com
It is currently 23 Sep 2021

All times are UTC + 3 hours

Spoiler
Chat - temporary registration for foreign users (please leave your application here)







Post new topic Reply to topic  [ 7 posts ] 
Author Message
 
PostPosted: 05 Nov 2011 
Работнечег
User avatar
Joined: 28 Aug 2007
Posts: 6364
Lоcаtion: г. Москва
Age: 32
Name: Дима
Attachment:
Front + OBI.jpg

Band: Nightwing
Album: Natural Survivors
Year: 1996
Label: Pony Canyon Records, #PCCY-00981
Genre: Rock
Coutry: UK
Format: Flac + Log + Cue + Covers
Size: 368 Mb

Line-Up:
Gordon Rowley - Bass, Vocals
Kenny Newton - Keyboards, Vocals
Steve Bartley - Drums, Electric Drums, Percussion, Vocals
Glynn Porrino - Electric Guitars, Acoustic Guitars, Electric 12 String, Sax
Kerry Beswick - Keyboards
Dave Evans - Lead Vocals
Barry Roberts - Extra Drums on Tracks 12, 13 and 14


Attachment:
Back.jpg


Tracklist:
1. Islands 01:20
2. Unrequited Love 03:50
3. I Must be Dreaming 03:47
4. Natural Survivor 03:56
5. 21st Century 02:55
6. Sahara 06:46
7. Here Comes the Night 04:02
8. All of My Life 03:54
9. Take the Money and Run 04:38
10. She's the Woman 03:46
11. Nights in White Satin 03:45
12. You've Got Me Falling 04:45
13. Mercenary Man 03:29
14. Out In The Cold (Bonus) 03:17
15. Islands Reprise 00:49

LOG
Exact Audio Copy V0.99 prebeta 5 from 4. May 2009

EAC extraction logfile from 4. November 2011, 16:57

Nightwing / Natural Survivors

Used drive : PIONEER DVD-RW DVR-116D Adapter: 0 ID: 0

Read mode : Secure
Utilize accurate stream : Yes
Defeat audio cache : Yes
Make use of C2 pointers : No

Read offset correction : 96
Overread into Lead-In and Lead-Out : No
Fill up missing offset samples with silence : Yes
Delete leading and trailing silent blocks : No
Null samples used in CRC calculations : Yes
Used interface : Native Win32 interface for Win NT & 2000

Used output format : User Defined Encoder
Selected bitrate : 32 kBit/s
Quality : High
Add ID3 tag : No
Command line compressor : C:\Program Files\Exact Audio Copy\Flac\flac.exe
Additional command line options : -6 -V %s


TOC of the extracted CD

Track | Start | Length | Start sector | End sector
---------------------------------------------------------
1 | 0:00.00 | 1:19.60 | 0 | 5984
2 | 1:19.60 | 3:50.05 | 5985 | 23239
3 | 5:09.65 | 3:47.35 | 23240 | 40299
4 | 8:57.25 | 3:55.72 | 40300 | 57996
5 | 12:53.22 | 2:54.63 | 57997 | 71109
6 | 15:48.10 | 6:45.47 | 71110 | 101531
7 | 22:33.57 | 4:01.63 | 101532 | 119669
8 | 26:35.45 | 3:53.55 | 119670 | 137199
9 | 30:29.25 | 4:38.22 | 137200 | 158071
10 | 35:07.47 | 3:45.40 | 158072 | 174986
11 | 38:53.12 | 3:45.35 | 174987 | 191896
12 | 42:38.47 | 4:44.40 | 191897 | 213236
13 | 47:23.12 | 3:28.38 | 213237 | 228874
14 | 50:51.50 | 3:17.32 | 228875 | 243681
15 | 54:09.07 | 0:49.10 | 243682 | 247366


Range status and errors

Selected range

Filename D:\Музыка\Lossless\Nightwing - Natural Survivors (1996)(Japan)\Nightwing - Natural Survivors.wav

Peak level 99.5 %
Range quality 100.0 %
Copy CRC D90BD482
Copy OK

No errors occurred


AccurateRip summary

Track 1 not present in database
Track 2 not present in database
Track 3 not present in database
Track 4 not present in database
Track 5 not present in database
Track 6 not present in database
Track 7 not present in database
Track 8 not present in database
Track 9 not present in database
Track 10 not present in database
Track 11 not present in database
Track 12 not present in database
Track 13 not present in database
Track 14 not present in database
Track 15 not present in database

None of the tracks are present in the AccurateRip database

End of status report

CUE
REM GENRE Rock
REM DATE 1996
REM DISCID C20CE20F
REM COMMENT "ExactAudioCopy v0.99pb5"
PERFORMER "Nightwing"
TITLE "Natural Survivors"
FILE "Nightwing - Natural Survivors.flac" WAVE
TRACK 01 AUDIO
TITLE "Islands"
PERFORMER "Nightwing"
INDEX 01 00:00:00
TRACK 02 AUDIO
TITLE "Unrequited Love"
PERFORMER "Nightwing"
INDEX 01 01:19:60
TRACK 03 AUDIO
TITLE "I Must Be Dreaming"
PERFORMER "Nightwing"
INDEX 01 05:09:65
TRACK 04 AUDIO
TITLE "Natural Survivor"
PERFORMER "Nightwing"
INDEX 01 08:57:25
TRACK 05 AUDIO
TITLE "21st Century"
PERFORMER "Nightwing"
INDEX 01 12:53:22
TRACK 06 AUDIO
TITLE "Sahara"
PERFORMER "Nightwing"
INDEX 01 15:48:10
TRACK 07 AUDIO
TITLE "Here Comes The Night"
PERFORMER "Nightwing"
INDEX 00 22:30:05
INDEX 01 22:33:57
TRACK 08 AUDIO
TITLE "All Of My Life"
PERFORMER "Nightwing"
INDEX 00 26:32:02
INDEX 01 26:35:45
TRACK 09 AUDIO
TITLE "Take The Money And Run"
PERFORMER "Nightwing"
INDEX 00 30:25:50
INDEX 01 30:29:25
TRACK 10 AUDIO
TITLE "She's The Woman"
PERFORMER "Nightwing"
INDEX 00 35:04:02
INDEX 01 35:07:47
TRACK 11 AUDIO
TITLE "Nights In White Satin"
PERFORMER "Nightwing"
INDEX 00 38:49:45
INDEX 01 38:53:12
TRACK 12 AUDIO
TITLE "You've Got Me Falling"
PERFORMER "Nightwing"
INDEX 00 42:34:70
INDEX 01 42:38:47
TRACK 13 AUDIO
TITLE "Mercenery Man"
PERFORMER "Nightwing"
INDEX 00 47:19:32
INDEX 01 47:23:12
TRACK 14 AUDIO
TITLE "Out In The Cold (Bonus)"
PERFORMER "Nightwing"
INDEX 00 50:47:32
INDEX 01 50:51:50
TRACK 15 AUDIO
TITLE "Islands Reprise"
PERFORMER "Nightwing"
INDEX 01 54:09:07


Narod.Ru

Отличный альбом, больше всего мне у группы понравился! Покупал его не слушав, ещё 2 года назад и совсем не жалею :true:


Top
 Profile E-mail  
 
 
PostPosted: 05 Nov 2011 
Хиппей (support team)
User avatar
Joined: 30 Jul 2007
Posts: 122693
Lоcаtion: Киев (Kyiv, UA)
Age: 48
Name: Andrey
:thanx:

mirror: MultiUp l Narod

_________________


Top
 Profile E-mail  
 
 
PostPosted: 05 Nov 2011 
хард н хэвщик (support team)
User avatar
Joined: 02 Jun 2008
Posts: 16881
Lоcаtion: Н.Новгород
Age: 34
Name: Артем
спасибо огромное Димон!!!!


Top
 Profile  
 
 
PostPosted: 05 Nov 2011 
Я набрал 1000 сообщений!
Joined: 24 Oct 2009
Posts: 2555
Lоcаtion: РСФСР
Age: 58
Name: Юра
И я благодарю :thanx:

_________________
:dash: I am happy!


Top
 Profile E-mail  
 
 
PostPosted: 05 Nov 2011 
Прокъмитолист
User avatar
Joined: 12 Aug 2007
Posts: 6868
Lоcаtion: Санктъ-Петербуркъ
Age: 53
Name: Олекъ
Димка, спасибо за японца! :thanx:

_________________
прокъметол - это музыко, от которово есть прок (ы)


Top
 Profile  
 
 
PostPosted: 05 Nov 2011 
А может смените мне статус?..
User avatar
Joined: 30 Aug 2009
Posts: 824
Lоcаtion: Ачинск, Красноярский край
Age: 35
Name: Стас
:thanx:


Top
 Profile E-mail  
 
 
PostPosted: 11 Nov 2011 
Труъ
Joined: 01 Jan 2010
Posts: 118
Lоcаtion: MetaLWarrioR
Name: Сергей
Спасибо!


Top
 Profile E-mail  
 
Display posts from previous:  Sort by  
Post new topic Reply to topic  [ 7 posts ] 

All times are UTC + 3 hours


Who is online

Users browsing this forum: No registered users and 1 guest


You cannot post new topics in this forum
You cannot reply to topics in this forum
You cannot edit your posts in this forum
You cannot delete your posts in this forum

Search for:
Яндекс.Метрика
Powered by phpBB © 2000, 2002, 2005, 2007 phpBB Group