\m/ 80's metal \m/

Информационно-аналитический форум "80 см пыли" (In Search We Trust) "У нас никто никуда не спешит"
Me For You - http://me-4u.com
It is currently 24 Apr 2019

All times are UTC + 3 hours

Spoiler
Chat - temporary registration for foreign users (please leave your application here)







Post new topic Reply to topic  [ 5 posts ] 
Author Message
 
PostPosted: 08 Apr 2011 
Генеральный thrasher
User avatar
Joined: 03 Oct 2008
Posts: 3695
Lоcаtion: Ханты-Мансийский АО
Age: 44
Name: Сергей
Image

Year:1992
Style:Thrash Metal
Country:Spain
Audio:Flac+Cue+Log+Scans
Size:260Mb
Label:PDI

Line-Up:
Jonathan Dolcet - Bass/vocals
Joaquin "Quimi" Montaсes - Guitar
Marc Pages - Guitar
Joan "Ross" Loza - Drums

Tracklist:
1. Beyond Betrayal 04:51
2. Route to Madness 03:38
3. A Matter of Greed 05:18
4. Bag Full of Meat 02:52
5. Dead on Arrival (GBH-Cover) 01:43
6. They Call Me War 06:09
7. Nothing 04:09
8. This Can't Be Real 03:57
9. Nada Sin Fe 02:09

Cue
REM GENRE "Thrash Metal"
REM DATE 1992
PERFORMER "Legion"
TITLE "Labyrinth Of Problems"
FILE "Legion - Labyrinth Of Problems.flac" WAVE
TRACK 01 AUDIO
TITLE "Beyond Betrayal"
PERFORMER "Legion"
INDEX 00 00:00:00
INDEX 01 00:00:33
TRACK 02 AUDIO
TITLE "Route To Madness"
PERFORMER "Legion"
INDEX 00 04:49:33
INDEX 01 04:51:58
TRACK 03 AUDIO
TITLE "A Matter Of Greed"
PERFORMER "Legion"
INDEX 00 08:27:08
INDEX 01 08:29:58
TRACK 04 AUDIO
TITLE "Bag Full Of Meat"
PERFORMER "Legion"
INDEX 00 13:45:58
INDEX 01 13:48:08
TRACK 05 AUDIO
TITLE "Dead On Arrival"
PERFORMER "Legion"
INDEX 00 16:38:58
INDEX 01 16:40:58
TRACK 06 AUDIO
TITLE "They Call Me War"
PERFORMER "Legion"
INDEX 00 18:21:58
INDEX 01 18:24:33
TRACK 07 AUDIO
TITLE "Nothing"
PERFORMER "Legion"
INDEX 00 24:31:08
INDEX 01 24:33:33
TRACK 08 AUDIO
TITLE "This Cant't Be Real"
PERFORMER "Legion"
INDEX 00 28:39:58
INDEX 01 28:42:33
TRACK 09 AUDIO
TITLE "Nada Sin Fe"
PERFORMER "Legion"
INDEX 00 32:37:33
INDEX 01 32:39:33


Log
EAC extraction logfile from 31. May 2010, 09:53 for CD
Legion / Labyrinth Of Problems

Used drive : TSSTcorp CD-DVDW TS-L532A Adapter: 0 ID: 1
Read mode : Secure with NO C2, accurate stream, disable cache
Read offset correction : 116
Overread into Lead-In and Lead-Out : No

Used output format : Internal WAV Routines
44.100 Hz; 16 Bit; Stereo

Other options :
Fill up missing offset samples with silence : Yes
Delete leading and trailing silent blocks : No
Installed external ASPI interface


Range status and errors
Selected range
Filename D:\Music\Temp\Legion - Labyrinth Of Problems.wav

Peak level 100.0 %
Range quality 100.0 %
CRC B9786C04
Copy OK

No errors occured

End of status report


Labyrinth of Problems


Top
 Profile  
 
 
PostPosted: 16 Apr 2011 
Работнечег
User avatar
Joined: 28 Aug 2007
Posts: 5812
Lоcаtion: г. Москва
Age: 30
Name: Дима
Спасибо, Серёг! Очень давно слушал, но вроде нравилось!
P.S. У тебя случайно Su Ta Gar в лосях нет? :oops:


Top
 Profile E-mail  
 
 
PostPosted: 18 Apr 2011 
Генеральный thrasher
User avatar
Joined: 03 Oct 2008
Posts: 3695
Lоcаtion: Ханты-Мансийский АО
Age: 44
Name: Сергей
church wrote:
P.S. У тебя случайно Su Ta Gar в лосях нет? :oops:


Нет таких...


Top
 Profile  
 
 
PostPosted: 19 Jun 2011 
Хиппей (support team)
User avatar
Joined: 30 Jul 2007
Posts: 111813
Lоcаtion: Киев (Kyiv, UA)
Age: 45
Name: Andrey
О, отличная группа :true:
Спасибо, забираю :thanx:

mirror: MultiUp l Narod

_________________


Top
 Profile E-mail  
 
 
PostPosted: 19 Jun 2011 
Хиппей (support team)
User avatar
Joined: 30 Jul 2007
Posts: 111813
Lоcаtion: Киев (Kyiv, UA)
Age: 45
Name: Andrey
church wrote:
У тебя случайно Su Ta Gar в лосях нет?

Дим, на ММТ минимум 5 альбомов есть :oops:

_________________


Top
 Profile E-mail  
 
Display posts from previous:  Sort by  
Post new topic Reply to topic  [ 5 posts ] 

All times are UTC + 3 hours


Who is online

Users browsing this forum: No registered users and 2 guests


You cannot post new topics in this forum
You cannot reply to topics in this forum
You cannot edit your posts in this forum
You cannot delete your posts in this forum
You cannot post attachments in this forum

Search for:
Яндекс.Метрика
cron
Powered by phpBB © 2000, 2002, 2005, 2007 phpBB Group