\m/ 80's metal \m/

Информационно-аналитический форум "80 см пыли" (In Search We Trust) "У нас никто никуда не спешит"
Me For You - http://me-4u.com
It is currently 20 Aug 2019

All times are UTC + 3 hours

Spoiler
Chat - temporary registration for foreign users (please leave your application here)







Post new topic Reply to topic  [ 9 posts ] 
Author Message
 
PostPosted: 18 Mar 2011 
хард н хэвщик (support team)
User avatar
Joined: 02 Jun 2008
Posts: 16881
Lоcаtion: Н.Новгород
Age: 32
Name: Артем
Like Wilds (Swiss) - 1995 - Shout It Out Loud
Image

01 When She Wants To Make Love
02 Double Crime
03 Company Of Angels
04 When A Child Dies
05 Silent Scream
06 Strange Magnetism
07 Slut
08 Rock
09 Secret Dream
10 My Love For You
11 I Can't

Quote:
Here's your chance to get an original CD called LIKE WILDS - Shout It Out Loud. This mega rare 11 track CD was released in 1995 on a Swiss label. Virtually unknown hard rock/metal Swiss band that's been influenced by NATION. If you dig the style of Nation with a Swiss metal approach, then I would recommend it. Make your bid count on this tough to find rarity. The CD and inserts are in very good condition.
ebay


Top
 Profile  
 
 
PostPosted: 17 Dec 2017 
Зарегился вот...
Joined: 26 May 2012
Posts: 1
Lоcаtion: Greece
Name: Jason
Download it here:
http://heavymetalrarities.com/forum/viewtopic.php?f=46&t=31746


Last edited by jasonkont on 18 Dec 2017, edited 1 time in total.

Top
 Profile E-mail  
 
 
PostPosted: 17 Dec 2017 
Работнечег
User avatar
Joined: 28 Aug 2007
Posts: 5932
Lоcаtion: г. Москва
Age: 30
Name: Дима
:thanx: :thanx:


Top
 Profile E-mail  
 
 
PostPosted: 18 Dec 2017 
Хиппей (support team)
User avatar
Joined: 30 Jul 2007
Posts: 114007
Lоcаtion: Киев (Kyiv, UA)
Age: 46
Name: Andrey
:thanx:

_________________


Top
 Profile E-mail  
 
 
PostPosted: 18 Dec 2017 
А может смените мне статус?..
User avatar
Joined: 06 Sep 2007
Posts: 825
Lоcаtion: СПб
Age: 64
Name: Сергей
FLAC

https://rutracker.org/forum/viewtopic.php?t=5494518


Top
 Profile  
 
 
PostPosted: 26 Dec 2017 
Хиппей (support team)
User avatar
Joined: 30 Jul 2007
Posts: 114007
Lоcаtion: Киев (Kyiv, UA)
Age: 46
Name: Andrey

:thanx:

Image Image Image Image

mirror: Depos l Narod l M-Cloud l Drop

log
Exact Audio Copy V1.1 from 23. June 2015

Отчёт EAC об извлечении, выполненном 14. декабря 2017, 20:07

Like Wilds / Shout It Out Louds (01950210)

Дисковод: PLEXTOR BD-R PX-B950SA Adapter: 1 ID: 0

Режим чтения : Достоверность
Использование точного потока : Да
Отключение кэша аудио : Да
Использование указателей C2 : Нет

Коррекция смещения при чтении : 6
Способность читать области Lead-in и Lead-out : Нет
Заполнение пропущенных сэмплов тишиной : Да
Удаление блоков с тишиной в начале и конце : Нет
При вычислениях CRC использовались нулевые сэмплы : Да
Интерфейс : Встроенный Win32-интерфейс для Win NT/2000

Выходной формат : Пользовательский кодировщик
Выбранный битрейт : 1024 kBit/s
Качество : Высокий
Добавление ID3-тега : Нет
Утилита сжатия : C:\Program Files (x86)\Exact Audio Copy\FLAC\FLAC.EXE
Дополнительные параметры : -6 -V -T "ARTIST=%artist%" -T "TITLE=%title%" -T "ALBUM=%albumtitle%" -T "DATE=%year%" -T "TRACKNUMBER=%tracknr%" -T "GENRE=%genre%" -T "COMMENT=%comment%" -T "BAND=%albuminterpret%" -T "ALBUMARTIST=%albuminterpret%" -T "COMPOSER=%composer%" %haslyrics%--tag-from-file=LYRICS="%lyricsfile%"%haslyrics% -T "DISCNUMBER=%cdnumber%" -T "TOTALDISCS=%totalcds%" -T "TOTALTRACKS=%numtracks%" %hascover%--picture="%coverfile%"%hascover% %source% -o %dest%


TOC извлечённого CD

Трек | Старт | Длительность | Начальный сектор | Конечный сектор
---------------------------------------------------------------------
1 | 0:00.00 | 3:33.10 | 0 | 15984
2 | 3:33.10 | 4:00.02 | 15985 | 33986
3 | 7:33.12 | 3:59.00 | 33987 | 51911
4 | 11:32.12 | 4:17.15 | 51912 | 71201
5 | 15:49.27 | 6:13.60 | 71202 | 99236
6 | 22:03.12 | 5:36.55 | 99237 | 124491
7 | 27:39.67 | 4:04.53 | 124492 | 142844
8 | 31:44.45 | 4:03.32 | 142845 | 161101
9 | 35:48.02 | 4:49.23 | 161102 | 182799
10 | 40:37.25 | 4:37.57 | 182800 | 203631
11 | 45:15.07 | 3:08.20 | 203632 | 217751


Характеристики диапазона извлечения и сообщения об ошибках

Выбранный диапазон

Имя файла G:\RIP\Like Wilds 1995 FLAC by alzal\Like Wilds - Shout It Out Louds (01950210).wav

Пиковый уровень 93.7 %
Скорость извлечения 8.2 X
Качество диапазона 99.9 %
CRC теста 5C2DB687
CRC копии 5C2DB687
Копирование... OK

Ошибок не произошло


AccurateRip: сводка

Трек 1 отсутствует в базе данных
Трек 2 отсутствует в базе данных
Трек 3 отсутствует в базе данных
Трек 4 отсутствует в базе данных
Трек 5 отсутствует в базе данных
Трек 6 отсутствует в базе данных
Трек 7 отсутствует в базе данных
Трек 8 отсутствует в базе данных
Трек 9 отсутствует в базе данных
Трек 10 отсутствует в базе данных
Трек 11 отсутствует в базе данных

Ни одного трека нет в базе AccurateRip

Конец отчёта

---- CUETools DB Plugin V2.1.6

[CTDB TOCID: k05nHhHqr8iLfi8YD8aPOt12kpw-] disk not present in database
Submit result: k05nHhHqr8iLfi8YD8aPOt12kpw- has been uploaded


==== Контрольная сумма отчёта 64B301C231A730D63C2D892EA773112E7A349AB6C3FE0C217698B84A3800A3B2 ===

cue
REM GENRE "Melodic Metal"
REM DATE 1995
REM DISCID 8E0B570B
REM COMMENT "ExactAudioCopy v1.1"
PERFORMER "Like Wilds"
TITLE "Shout It Out Louds (01950210)"
FILE "Like Wilds - Shout It Out Louds (01950210).flac" WAVE
TRACK 01 AUDIO
TITLE "When She Want's To Make Love"
PERFORMER "Like Wilds"
INDEX 01 00:00:00
TRACK 02 AUDIO
TITLE "Double Crime"
PERFORMER "Like Wilds"
INDEX 01 03:33:10
TRACK 03 AUDIO
TITLE "Company Of Angels"
PERFORMER "Like Wilds"
INDEX 00 07:29:57
INDEX 01 07:33:12
TRACK 04 AUDIO
TITLE "When A Child Dies"
PERFORMER "Like Wilds"
INDEX 00 11:29:07
INDEX 01 11:32:12
TRACK 05 AUDIO
TITLE "Silent Scream"
PERFORMER "Like Wilds"
INDEX 00 15:46:17
INDEX 01 15:49:27
TRACK 06 AUDIO
TITLE "Strange Magnetism"
PERFORMER "Like Wilds"
INDEX 00 22:01:57
INDEX 01 22:03:12
TRACK 07 AUDIO
TITLE "Slut"
PERFORMER "Like Wilds"
INDEX 00 27:36:17
INDEX 01 27:39:67
TRACK 08 AUDIO
TITLE "Rock"
PERFORMER "Like Wilds"
INDEX 00 31:41:07
INDEX 01 31:44:45
TRACK 09 AUDIO
TITLE "Secret Dream"
PERFORMER "Like Wilds"
INDEX 00 35:44:32
INDEX 01 35:48:02
TRACK 10 AUDIO
TITLE "My Love For You"
PERFORMER "Like Wilds"
INDEX 00 40:32:32
INDEX 01 40:37:25
TRACK 11 AUDIO
TITLE "I Can't"
PERFORMER "Like Wilds"
INDEX 00 45:11:30
INDEX 01 45:15:07


Image Image Image Image

_________________


Top
 Profile E-mail  
 
 
PostPosted: 26 Dec 2017 
Хиппей (support team)
User avatar
Joined: 30 Jul 2007
Posts: 114007
Lоcаtion: Киев (Kyiv, UA)
Age: 46
Name: Andrey
Жаль, альбом оказался почти никакущим среднетэмповым Hard & Heavy и... всего-лишь с парочкой хороших композиций.
Явно сейчас поищу их на Ютубе и сюда тыкну.
Одна из них баллада, или эпик.

4/10

_________________


Top
 Profile E-mail  
 
 
PostPosted: 26 Dec 2017 
Хиппей (support team)
User avatar
Joined: 30 Jul 2007
Posts: 114007
Lоcаtion: Киев (Kyiv, UA)
Age: 46
Name: Andrey
Кажись вот этот трэк понравился ночью, если не ошибаюсь. Хотя могу. Этот то не очень активный какой-то :vic:

Like Wilds - Doble Crime


_________________


Top
 Profile E-mail  
 
 
PostPosted: 27 Dec 2017 
Хиппей (support team)
User avatar
Joined: 30 Jul 2007
Posts: 114007
Lоcаtion: Киев (Kyiv, UA)
Age: 46
Name: Andrey
Like Wilds - Silent Scream


Балладка некая, надрывная немного :dance:

_________________


Top
 Profile E-mail  
 
Display posts from previous:  Sort by  
Post new topic Reply to topic  [ 9 posts ] 

All times are UTC + 3 hours


Who is online

Users browsing this forum: No registered users and 2 guests


You cannot post new topics in this forum
You cannot reply to topics in this forum
You cannot edit your posts in this forum
You cannot delete your posts in this forum
You cannot post attachments in this forum

Search for:
Яндекс.Метрика
Powered by phpBB © 2000, 2002, 2005, 2007 phpBB Group