\m/ 80's metal \m/

Информационно-аналитический форум "80 см пыли" (In Search We Trust) "У нас никто никуда не спешит"
Me For You - http://me-4u.com
It is currently 23 Apr 2019

All times are UTC + 3 hours

Spoiler
Chat - temporary registration for foreign users (please leave your application here)







Post new topic Reply to topic  [ 4 posts ] 
Author Message
 
PostPosted: 02 Jan 2011 
Old Time Rock`n`Roll
User avatar
Joined: 23 Jun 2008
Posts: 3410
Lоcаtion: г.Ульяновск
Age: 40
Name: Константин
LeRoux – Keep The Fire Burnin' (1979)

Image

Year: 1979
Style: AOR
Country: USA
Format: APE (image+log+cue) & mp3-320
Size: 338 Mb + 129 Mb

Tracklist
01. Keep The Fire Burnin' (3:44)
02. Call Home The Heart (3:45)
03. When I Get Home (3:15)
04. You Be My Vision (3:59)
05. Fa-Fa-Fa-Fa-Fa (The Sad Song) (3:06)
06. Feel It (3:40)
07. Thunder N' Lightinn' (4:28)
08. Window Eyes (3:38)
09. Say It (With Your Heart) (3:33)
10. Back The Levee (4:59)
11. Rodeo (bonus) (2:43)
12. Ain't Nothing But A Gris Gris (bonus) (4:10)
13. Bon Ton Roulette (bonus) (3:36)

TPT – 48:49

Line-Up
Bobby Campo - Trumpet, Congas, Percussion
David Peters - Drums, Percussion
Jeff Pollard - Lead/Backing Vocals, Guitar
Leon Medica - Bass
Rod Roddy - Piano, Clayinet, Synth, Hammond B3, Backing Vocals
Tony Haselden - Lead/Backing Vocals, Guitar


Album Credits:
Produced: Leon Medica
Engineered: William S. Evans
Mastered: Wally Traugott

Album Chart Position
USA # 162

Log
Exact Audio Copy V0.99 prebeta 4 from 23. January 2008

Отчёт EAC об извлечении, выполненном 12. марта 2010, 20:24

Louisiana's LeRoux / Keep The Fire Burnin'

Дисковод: Optiarc DVD RW AD-7173S Adapter: 3 ID: 0

Режим чтения : Достоверность
Использование точного потока : Да
Отключение кэша аудио : Да
Использование указателей C2 : Нет

Коррекция смещения при чтении : 48
Способность читать области Lead-in и Lead-out : Нет
Заполнение пропущенных сэмплов тишиной : Да
Удаление блоков с тишиной в начале и конце : Нет
При вычислениях CRC использовались нулевые сэмплы : Да
Интерфейс : Встроенный Win32-интерфейс для Win NT/2000

Выходной формат : Monkey's Audio (без потерь)
Выбранный битрейт : Normal Lossless Compression
Качество : Высокий
Добавление ID3-тэга : Нет
Утилита сжатия : C:\Program Files\Monkey's Audio\MAC.exe


TOC извлечённого CD

Трек | Старт | Длительность | Начальный сектор | Конечный сектор
---------------------------------------------------------------------
1 | 0:00.00 | 3:44.15 | 0 | 16814
2 | 3:44.15 | 3:46.41 | 16815 | 33805
3 | 7:30.56 | 3:14.11 | 33806 | 48366
4 | 10:44.67 | 4:03.61 | 48367 | 66652
5 | 14:48.53 | 3:03.08 | 66653 | 80385
6 | 17:51.61 | 3:42.23 | 80386 | 97058
7 | 21:34.09 | 4:30.09 | 97059 | 117317
8 | 26:04.18 | 3:39.51 | 117318 | 133793
9 | 29:43.69 | 3:33.16 | 133794 | 149784
10 | 33:17.10 | 5:01.54 | 149785 | 172413
11 | 38:18.64 | 2:43.37 | 172414 | 184675
12 | 41:02.26 | 4:10.20 | 184676 | 203445
13 | 45:12.46 | 3:36.55 | 203446 | 219700


Характеристики диапазона извлечения и сообщения об ошибках

Выбранный диапазон

Имя файла E:\Выкладываемая Музыка\Louisiana's LeRoux - Keep The Fire Burnin' 1979\Louisiana's LeRoux - Keep The Fire Burnin'.wav

Пиковый уровень 99.6 %
Качество диапазона 100.0 %
CRC копии 8A263869
Копирование... OK

Ошибок не произошло

Конец отчёта


Cue
REM GENRE Rock
REM DATE 1979
REM DISCID BB0B710D
REM COMMENT "ExactAudioCopy v0.99pb4"
PERFORMER "Louisiana's LeRoux"
TITLE "Keep The Fire Burnin'"
FILE "Louisiana's LeRoux - Keep The Fire Burnin'.ape" WAVE
TRACK 01 AUDIO
TITLE "Keep The Fire Burnin'"
PERFORMER "Louisiana's LeRoux"
INDEX 01 00:00:00
TRACK 02 AUDIO
TITLE "Call Home The Heart"
PERFORMER "Louisiana's LeRoux"
INDEX 01 03:44:15
TRACK 03 AUDIO
TITLE "When I Get Home"
PERFORMER "Louisiana's LeRoux"
INDEX 01 07:30:56
TRACK 04 AUDIO
TITLE "You Be My Vision"
PERFORMER "Louisiana's LeRoux"
INDEX 01 10:44:67
TRACK 05 AUDIO
TITLE "Fa-Fa-Fa-Fa-Fa (The Sad Song)"
PERFORMER "Louisiana's LeRoux"
INDEX 01 14:48:53
TRACK 06 AUDIO
TITLE "Feel It"
PERFORMER "Louisiana's LeRoux"
INDEX 01 17:51:61
TRACK 07 AUDIO
TITLE "Thunder N' Lightnin'"
PERFORMER "Louisiana's LeRoux"
INDEX 01 21:34:09
TRACK 08 AUDIO
TITLE "Window Eyes"
PERFORMER "Louisiana's LeRoux"
INDEX 01 26:04:18
TRACK 09 AUDIO
TITLE "Say It (With Your Heart)"
PERFORMER "Louisiana's LeRoux"
INDEX 01 29:43:69
TRACK 10 AUDIO
TITLE "Back To The Levee"
PERFORMER "Louisiana's LeRoux"
INDEX 01 33:17:10
TRACK 11 AUDIO
TITLE "Rodeo"
PERFORMER "Louisiana's LeRoux"
INDEX 01 38:18:64
TRACK 12 AUDIO
TITLE "Ain't Nothing But A Gris Gris"
PERFORMER "Louisiana's LeRoux"
INDEX 01 41:02:26
TRACK 13 AUDIO
TITLE "Bon Ton Roulette"
PERFORMER "Louisiana's LeRoux"
INDEX 01 45:12:46


APE
narod-APE
folder-APE

mp-320
megaupload-320

Один знакомый человек искал альбомы этой группы в лосслесс, а этот альбом, скачанный мною с рутрекера, ушел в архив и к нему сейчас нет доступа, вот я и перезалил. Рип пользователя nightranger53, ему и спасибо. Альбом – еще АОР 70-х.

Image


Last edited by oldrocker on 19 Feb 2012, edited 1 time in total.

Top
 Profile  
 
 
PostPosted: 04 Jan 2011 
труъ антисионист
User avatar
Joined: 01 Aug 2007
Posts: 4541
Lоcаtion: Откуда и большинство из нас
Age: 38
Name: Дядя Вова
Спасибо - беру! :dance:

_________________
Image
Image


Top
 Profile  
 
 
PostPosted: 04 Jan 2011 
Хиппей (support team)
User avatar
Joined: 30 Jul 2007
Posts: 111788
Lоcаtion: Киев (Kyiv, UA)
Age: 45
Name: Andrey
:thanx:

Мужик на облоге некультурно клешней в тарелку лезет :diablo:

_________________


Top
 Profile E-mail  
 
 
PostPosted: 04 Jan 2011 
Old Time Rock`n`Roll
User avatar
Joined: 23 Jun 2008
Posts: 3410
Lоcаtion: г.Ульяновск
Age: 40
Name: Константин
Это он от отчаяния :pardon:
Он понял, что остаток жини проведет не с девушкой в красном, а с мадам в зеленом. Увы


Top
 Profile  
 
Display posts from previous:  Sort by  
Post new topic Reply to topic  [ 4 posts ] 

All times are UTC + 3 hours


Who is online

Users browsing this forum: No registered users and 2 guests


You cannot post new topics in this forum
You cannot reply to topics in this forum
You cannot edit your posts in this forum
You cannot delete your posts in this forum
You cannot post attachments in this forum

Search for:
Яндекс.Метрика
Powered by phpBB © 2000, 2002, 2005, 2007 phpBB Group