\m/ 80's metal \m/

Информационно-аналитический форум "80 см пыли" (In Search We Trust) "У нас никто никуда не спешит"
Me For You - http://me-4u.com
It is currently 14 Dec 2019

All times are UTC + 3 hours

Spoiler
Chat - temporary registration for foreign users (please leave your application here)







Post new topic Reply to topic  [ 18 posts ] 
Author Message
 
PostPosted: 09 Nov 2010 
Генеральный thrasher
User avatar
Joined: 03 Oct 2008
Posts: 3743
Lоcаtion: Ханты-Мансийский АО
Age: 44
Name: Сергей
Image

Year:1991
Style:U.S.A.
Country:Germany
Audio:Flac+Cue+Log
Size:312Mb
Label:Pony Canyon Inc.(PCCY-00330)

Line-Up:
Vocals: Michael Coons
Guitars: Aaron Jellum
Guitars: Scott Sargent
Bass: Scott Dominguez
Drums: Dave Chavarri

Tracklist:
1. In the Name of the Father and the Gun 04:14
2. Into the Asylum 04:56
3. Greed Machine 04:28
4. Too Far Gone 03:45
5. Curiosity Kills 03:18
6. Suicide City 04:26
7. The Enemy Within 05:53
8. Nobody's Child 03:43
9. Silence is a Lie 03:45
10. Necropolis 03:52

Album
Scans

Для Дениса (klod77).Альбом без сканов выкладывал на доке у Оксаны.Сканы залил сегодня.С компа лося давно удалил.Поэтому Cue и Log привести не могу.Делал как обычно со своего диска.


Top
 Profile  
 
 
PostPosted: 09 Nov 2010 
Хиппей (support team)
User avatar
Joined: 30 Jul 2007
Posts: 116132
Lоcаtion: Киев (Kyiv, UA)
Age: 46
Name: Andrey
thorbeorn wrote:
С компа лося давно удалил.Поэтому Cue и Log привести не могу.Делал как обычно со своего диска.

Эммм... не труъ.
Пойду у Оксаны посмотрю, шо там осталось...

_________________


Top
 Profile E-mail  
 
 
PostPosted: 09 Nov 2010 
Хиппей (support team)
User avatar
Joined: 30 Jul 2007
Posts: 116132
Lоcаtion: Киев (Kyiv, UA)
Age: 46
Name: Andrey
thorbeorn wrote:
Audio:Flac+Cue+Log

Упс, Серёг, то есть, куй и лог внутри архива?

_________________


Top
 Profile E-mail  
 
 
PostPosted: 09 Nov 2010 
Генеральный thrasher
User avatar
Joined: 03 Oct 2008
Posts: 3743
Lоcаtion: Ханты-Мансийский АО
Age: 44
Name: Сергей
Да конечно внутри архива.Ты ж меня знаешь,Андрей.Просто на компе не осталось лося...


Top
 Profile  
 
 
PostPosted: 09 Nov 2010 
Хиппей (support team)
User avatar
Joined: 30 Jul 2007
Posts: 116132
Lоcаtion: Киев (Kyiv, UA)
Age: 46
Name: Andrey
Норм, спасибо :thanx: . Скачаю, вставлю в твой пост.
А то чет сначала подумал, что ты только флак загрузил и сканы :oops:

_________________


Top
 Profile E-mail  
 
 
PostPosted: 09 Nov 2010 
А может смените мне статус?..
User avatar
Joined: 17 Jan 2008
Posts: 901
Lоcаtion: Пенза
Age: 42
Name: Денис
Благодарствую!!!!!!!!!!!!! :true: :true: :true:


Top
 Profile  
 
 
PostPosted: 06 Mar 2016 
5-speed satisfactor
User avatar
Joined: 16 Feb 2009
Posts: 3808
Lоcаtion: New York, USA
Age: 41
Name: Leonid
Первопресс? Перезалейте?

_________________
Death rules! Metal to all who oppose!


Top
 Profile  
 
 
PostPosted: 06 Mar 2016 
5-speed satisfactor
User avatar
Joined: 16 Feb 2009
Posts: 3808
Lоcаtion: New York, USA
Age: 41
Name: Leonid
Это он?

http://rutracker.org/forum/viewtopic.php?t=380663

_________________
Death rules! Metal to all who oppose!


Top
 Profile  
 
 
PostPosted: 07 Mar 2016 
Генеральный thrasher
User avatar
Joined: 03 Oct 2008
Posts: 3743
Lоcаtion: Ханты-Мансийский АО
Age: 44
Name: Сергей


Там рип с MMT,а здесь с моего диска,Лёнь.Старый рип не сохранился.Если никто из парней не перезальёт,сделаю по новой.


Top
 Profile  
 
 
PostPosted: 07 Mar 2016 
5-speed satisfactor
User avatar
Joined: 16 Feb 2009
Posts: 3808
Lоcаtion: New York, USA
Age: 41
Name: Leonid
А на ммт первопресс?

_________________
Death rules! Metal to all who oppose!


Top
 Profile  
 
 
PostPosted: 07 Mar 2016 
Генеральный thrasher
User avatar
Joined: 03 Oct 2008
Posts: 3743
Lоcаtion: Ханты-Мансийский АО
Age: 44
Name: Сергей
Полагаю,что первопресс: Roadracer Records Catalog ID:RO 9257 2


Top
 Profile  
 
 
PostPosted: 07 Mar 2016 
5-speed satisfactor
User avatar
Joined: 16 Feb 2009
Posts: 3808
Lоcаtion: New York, USA
Age: 41
Name: Leonid
Тот собственно уже скачался. А у тебя япошка.... Тоже первопресс.... Ну если не трудно, перерипай и перезалей. :thanx:

_________________
Death rules! Metal to all who oppose!


Top
 Profile  
 
 
PostPosted: 24 Mar 2016 
5-speed satisfactor
User avatar
Joined: 16 Feb 2009
Posts: 3808
Lоcаtion: New York, USA
Age: 41
Name: Leonid
Ну что, даёшь японца?

_________________
Death rules! Metal to all who oppose!


Top
 Profile  
 
 
PostPosted: 24 Mar 2016 
Генеральный thrasher
User avatar
Joined: 03 Oct 2008
Posts: 3743
Lоcаtion: Ханты-Мансийский АО
Age: 44
Name: Сергей
Лёнь,тут такое дело.Раньше не больно разбирался.А сейчас глянул - диск пиратка,хоть и с толстым буклетом.


Top
 Profile  
 
 
PostPosted: 25 Mar 2016 
Хиппей (support team)
User avatar
Joined: 30 Jul 2007
Posts: 116132
Lоcаtion: Киев (Kyiv, UA)
Age: 46
Name: Andrey
Лёнь,тут такое дело.Раньше не больно разбирался.А сейчас глянул - диск пиратка,хоть и с толстым буклетом.

Ой... :lloo:

_________________


Top
 Profile E-mail  
 
 
PostPosted: 25 Mar 2016 
Хиппей (support team)
User avatar
Joined: 30 Jul 2007
Posts: 116132
Lоcаtion: Киев (Kyiv, UA)
Age: 46
Name: Andrey
thorbeorn wrote:
Label:Pony Canyon Inc.(PCCY-00330)

А, дык, это ж... попсовый лэйбл.

_________________


Top
 Profile E-mail  
 
 
PostPosted: 25 Mar 2016 
Хиппей (support team)
User avatar
Joined: 30 Jul 2007
Posts: 116132
Lоcаtion: Киев (Kyiv, UA)
Age: 46
Name: Andrey


Image

mirror: iFolder l Narod l M-Cloud

Image Image

log
EAC extraction logfile from 26. September 2004, 11:12 for CD
Laaz Rockit / Nothing$ $acred

Used drive : PIONEER DVD-RW DVR-108 Adapter: 1 ID: 0
Read mode : Secure with NO C2, accurate stream, disable cache
Read offset correction : 0
Overread into Lead-In and Lead-Out : No

Used output format : C:\Programmi\Exact Audio Copy\MAC.exe (Monkey's Audio Lossless Encoder)
High Lossless Compression

Other options :
Fill up missing offset samples with silence : Yes
Delete leading and trailing silent blocks : No
Native Win32 interface for Win NT & 2000


Range status and errors
Selected range
Filename E:\Metalmadness releases\Nothing$ sacred.wav

Peak level 99.1 %
Range quality 100.0 %
CRC 9E30A2AA
Copy OK

No errors occured

End of status report

cue
PERFORMER "Laaz Rockit"
TITLE "Nothing$ $acred"
FILE "Nothing$ sacred.ape" WAVE
TRACK 01 AUDIO
TITLE "In the Name of the Father and the Gun"
PERFORMER "Laaz Rockit"
INDEX 00 00:00:00
INDEX 01 00:00:33
TRACK 02 AUDIO
TITLE "Into the Asylum"
PERFORMER "Laaz Rockit"
INDEX 01 04:14:55
TRACK 03 AUDIO
TITLE "Greed Machine"
PERFORMER "Laaz Rockit"
INDEX 01 09:11:08
TRACK 04 AUDIO
TITLE "Too Far Gone"
PERFORMER "Laaz Rockit"
INDEX 01 13:38:25
TRACK 05 AUDIO
TITLE "Curiosity Kills"
PERFORMER "Laaz Rockit"
INDEX 01 17:23:53
TRACK 06 AUDIO
TITLE "Suicide City"
PERFORMER "Laaz Rockit"
INDEX 01 20:42:00
TRACK 07 AUDIO
TITLE "The Enemy Within"
PERFORMER "Laaz Rockit"
INDEX 01 25:08:30
TRACK 08 AUDIO
TITLE "Nobody's Child"
PERFORMER "Laaz Rockit"
INDEX 01 31:01:35
TRACK 09 AUDIO
TITLE "Silence is a Lie"
PERFORMER "Laaz Rockit"
INDEX 01 34:44:15
TRACK 10 AUDIO
TITLE "Necropolis"
PERFORMER "Laaz Rockit"
INDEX 01 38:28:45

_________________


Top
 Profile E-mail  
 
 
PostPosted: 25 Mar 2016 
Хиппей (support team)
User avatar
Joined: 30 Jul 2007
Posts: 116132
Lоcаtion: Киев (Kyiv, UA)
Age: 46
Name: Andrey
Эх, офигенный альбом :lob: :lob: :lob:

Как по мне, самый лучший у группы - достигли своего пика :kro:

9/10

_________________


Top
 Profile E-mail  
 
Display posts from previous:  Sort by  
Post new topic Reply to topic  [ 18 posts ] 

All times are UTC + 3 hours


Who is online

Users browsing this forum: No registered users and 2 guests


You cannot post new topics in this forum
You cannot reply to topics in this forum
You cannot edit your posts in this forum
You cannot delete your posts in this forum
You cannot post attachments in this forum

Search for:
Яндекс.Метрика
Powered by phpBB © 2000, 2002, 2005, 2007 phpBB Group