\m/ 80's metal \m/

Информационно-аналитический форум "80 см пыли" (In Search We Trust) "У нас никто никуда не спешит"
Me For You - http://me-4u.com
It is currently 19 Jul 2019

All times are UTC + 3 hours

Spoiler
Chat - temporary registration for foreign users (please leave your application here)







Post new topic Reply to topic  [ 7 posts ] 
Author Message
 
PostPosted: 28 Oct 2010 
Работнечег
User avatar
Joined: 28 Aug 2007
Posts: 5919
Lоcаtion: г. Москва
Age: 30
Name: Дима
Image
Band: Laaz Rockit
Album: Annihilation Principle
Label: Enigma Records
Genre: Power/Thrash Metal
Country: USA
Format: Flac + Log + Cue + Covers
Size: 376 Mb

Image

Line-Up:
Michael Coons - Vocals
Aaron Jellum - Guitars
Phil Kettner - Guitars
Willie Lange - Bass
Victor Agnello - Drums


Tracklist:
1. Fire in the Hole 03:50
2. Mob Justice 05:00
3. Chain of Fools 04:16
4. Shadow Company 06:19
5. Holiday in Cambodia (Dead Kennedys cover) 03:46
6. Bad Blood 04:36
7. Chasin' Charlie 04:41
8. Mirror to Madness 05:09
9. The Omen 06:38
10. Prelude To Death (Live) 04:07
11. Forced To Death (Live) 04:54

Spectrum
Image

LOG
Exact Audio Copy V0.99 prebeta 5 from 4. May 2009

EAC extraction logfile from 26. October 2010, 12:23

Laaz Rockit / Annihilation Principle

Used drive : PIONEER DVD-RW DVR-116D Adapter: 0 ID: 0

Read mode : Secure
Utilize accurate stream : Yes
Defeat audio cache : Yes
Make use of C2 pointers : No

Read offset correction : 96
Overread into Lead-In and Lead-Out : No
Fill up missing offset samples with silence : Yes
Delete leading and trailing silent blocks : No
Null samples used in CRC calculations : Yes
Used interface : Native Win32 interface for Win NT & 2000

Used output format : User Defined Encoder
Selected bitrate : 32 kBit/s
Quality : High
Add ID3 tag : No
Command line compressor : C:\Program Files\Exact Audio Copy\Flac\flac.exe
Additional command line options : -6 -V %s


TOC of the extracted CD

Track | Start | Length | Start sector | End sector
---------------------------------------------------------
1 | 0:00.00 | 3:50.47 | 0 | 17296
2 | 3:50.47 | 5:03.43 | 17297 | 40064
3 | 8:54.15 | 4:19.32 | 40065 | 59521
4 | 13:13.47 | 6:18.65 | 59522 | 87936
5 | 19:32.37 | 3:46.68 | 87937 | 104954
6 | 23:19.30 | 4:36.72 | 104955 | 125726
7 | 27:56.27 | 4:45.33 | 125727 | 147134
8 | 32:41.60 | 5:15.02 | 147135 | 170761
9 | 37:56.62 | 6:39.63 | 170762 | 200749
10 | 44:36.50 | 4:07.02 | 200750 | 219276
11 | 48:43.52 | 4:54.18 | 219277 | 241344


Range status and errors

Selected range

Filename D:\Музыка\Lossless\Laaz Rockit - Annihilation Principle (Japan)\Laaz Rockit - Annihilation Principle.wav

Peak level 100.0 %
Range quality 100.0 %
Copy CRC 8A3584FD
Copy OK

No errors occurred


AccurateRip summary

Track 1 accurately ripped (confidence 1) [6F8B53E7]
Track 2 accurately ripped (confidence 1) [8419F187]
Track 3 accurately ripped (confidence 1) [E8325FC0]
Track 4 accurately ripped (confidence 1) [33F14117]
Track 5 accurately ripped (confidence 1) [238F3B61]
Track 6 accurately ripped (confidence 1) [A7B1ACD6]
Track 7 accurately ripped (confidence 1) [F53A8BEF]
Track 8 accurately ripped (confidence 1) [2F6A5583]
Track 9 accurately ripped (confidence 1) [11D72F68]
Track 10 accurately ripped (confidence 1) [B7AD9CDC]
Track 11 accurately ripped (confidence 1) [44153B7F]

All tracks accurately ripped

End of status report

CUE
REM GENRE "Heavy Metal"
REM DATE 1989
REM DISCID A40C910B
REM COMMENT "ExactAudioCopy v0.99pb5"
PERFORMER "Laaz Rockit"
TITLE "Annihilation Principle"
FILE "Laaz Rockit - Annihilation Principle.flac" WAVE
TRACK 01 AUDIO
TITLE "Fire In The Hole"
PERFORMER "Laaz Rockit"
INDEX 01 00:00:00
TRACK 02 AUDIO
TITLE "Mob Justice"
PERFORMER "Laaz Rockit"
INDEX 01 03:50:47
TRACK 03 AUDIO
TITLE "Chain Of Fools"
PERFORMER "Laaz Rockit"
INDEX 00 08:52:17
INDEX 01 08:54:15
TRACK 04 AUDIO
TITLE "Shadow Company"
PERFORMER "Laaz Rockit"
INDEX 00 13:11:22
INDEX 01 13:13:47
TRACK 05 AUDIO
TITLE "Holiday In Cambodia (Digital Mix)"
PERFORMER "Laaz Rockit"
INDEX 01 19:32:37
TRACK 06 AUDIO
TITLE "Bad Blood"
PERFORMER "Laaz Rockit"
INDEX 01 23:19:30
TRACK 07 AUDIO
TITLE "Chasin' Charlie"
PERFORMER "Laaz Rockit"
INDEX 01 27:56:27
TRACK 08 AUDIO
TITLE "Mirror To Madness"
PERFORMER "Laaz Rockit"
INDEX 00 32:38:42
INDEX 01 32:41:60
TRACK 09 AUDIO
TITLE "The Omen"
PERFORMER "Laaz Rockit"
INDEX 00 37:52:42
INDEX 01 37:56:62
TRACK 10 AUDIO
TITLE "Prelude To Death (Live)"
PERFORMER "Laaz Rockit"
INDEX 00 44:34:60
INDEX 01 44:36:50
TRACK 11 AUDIO
TITLE "Forced To Fight (Live)"
PERFORMER "Laaz Rockit"
INDEX 01 48:43:52


Narod.Ru
Это точно не первопресс, похоже на допечатку или ещё хз на что) если кто-нибудь сможет найти чего это за издание, буду премного благодарен.Матрица 29B2-34 1.


Top
 Profile E-mail  
 
 
PostPosted: 28 Oct 2010 
Позитивный Южанин
User avatar
Joined: 07 May 2010
Posts: 1620
Lоcаtion: КРЫМ
Age: 44
Name: Алексей
:true: :thanx:

_________________
WATER'EM ALL!


Top
 Profile E-mail  
 
 
PostPosted: 29 Oct 2010 
Пионэръ
User avatar
Joined: 20 Jun 2010
Posts: 40
Lоcаtion: Москоw-Сити
Name: Димон
ето благая новость, данке-данке!! :true:

_________________
)†/_'†º¨ł


Top
 Profile  
 
 
PostPosted: 29 Oct 2010 
Генеральный thrasher
User avatar
Joined: 03 Oct 2008
Posts: 3714
Lоcаtion: Ханты-Мансийский АО
Age: 44
Name: Сергей
Есть японец "Nothing'$ $acred" от Pony Canyon - PCCY-00330.Нужен кому-нибудь?


Top
 Profile  
 
 
PostPosted: 29 Oct 2010 
А может смените мне статус?..
User avatar
Joined: 17 Jan 2008
Posts: 884
Lоcаtion: Пенза
Age: 41
Name: Денис
thorbeorn wrote:
Есть японец "Nothing'$ $acred" от Pony Canyon - PCCY-00330.Нужен кому-нибудь?

я бы не отказался :oops:


Top
 Profile  
 
 
PostPosted: 08 Nov 2010 
Работнечег
User avatar
Joined: 28 Aug 2007
Posts: 5919
Lоcаtion: г. Москва
Age: 30
Name: Дима
thorbeorn wrote:
Есть японец "Nothing'$ $acred" от Pony Canyon - PCCY-00330.Нужен кому-нибудь?

У меня впринципе есть, Серёг, но думаю, что на форуме не повредит, да и Денису вроде нужно :smile:


Top
 Profile E-mail  
 
 
PostPosted: 09 Nov 2010 
Хиппей (support team)
User avatar
Joined: 30 Jul 2007
Posts: 113537
Lоcаtion: Киев (Kyiv, UA)
Age: 46
Name: Andrey
:thanx:

_________________


Top
 Profile E-mail  
 
Display posts from previous:  Sort by  
Post new topic Reply to topic  [ 7 posts ] 

All times are UTC + 3 hours


Who is online

Users browsing this forum: No registered users and 1 guest


You cannot post new topics in this forum
You cannot reply to topics in this forum
You cannot edit your posts in this forum
You cannot delete your posts in this forum
You cannot post attachments in this forum

Search for:
Яндекс.Метрика
Powered by phpBB © 2000, 2002, 2005, 2007 phpBB Group