\m/ 80's metal \m/

Информационно-аналитический форум "80 см пыли" (In Search We Trust) "У нас никто никуда не спешит"
Me For You - http://me-4u.com
It is currently 14 Dec 2019

All times are UTC + 3 hours

Spoiler
Chat - temporary registration for foreign users (please leave your application here)







Post new topic Reply to topic  [ 7 posts ] 
Author Message
 
PostPosted: 24 Sep 2010 
ыыыы
User avatar
Joined: 17 May 2009
Posts: 952
Lоcаtion: Пушкино, МО
Age: 41
Name: Дмитрий
Image


Жанр: Heavy Metal
Происхождение исполнителя: США
Год издания: 1987
Год издания данного носителя: 1988
Страна-производитель носителя: Япония
Аудио кодек: FLAC
Тип рипа: image+.cue
Битрейт аудио: lossless
Продолжительность: 38:29
Рип: Собственный
Лейбл: ISLAND/POLYSTAR
Каталоговый номер: P33D-20050
Матрица: P33D20050 B7C23G (SANYO)

Треклист:
1. Rise or Fall 06:27
2. The Calling 04:04
3. Share a Dream 04:34
4. Cry Out 05:04
5. Gypsies and Thieves 04:42
6. Bad Moon Rising (Creedence Clearwater Revival cover) 02:40
7. Princess of Love 03:22
8. Magical Eyes 03:04
9. Rule the Night 04:32

"Куй"
REM GENRE "Heavy Metal"
REM DATE 1987
REM DISCID 74090409
REM COMMENT "ExactAudioCopy v0.99pb5"
PERFORMER "Leatherwolf"
TITLE "Leatherwolf [P33D-20050]"
FILE "Leatherwolf - Leatherwolf [P33D-20050].flac" WAVE
TRACK 01 AUDIO
TITLE "Rise Or Fall"
PERFORMER "Leatherwolf"
INDEX 01 00:00:00
TRACK 02 AUDIO
TITLE "The Calling"
PERFORMER "Leatherwolf"
INDEX 00 06:25:35
INDEX 01 06:26:42
TRACK 03 AUDIO
TITLE "Share A Dream"
PERFORMER "Leatherwolf"
INDEX 00 10:29:07
INDEX 01 10:30:40
TRACK 04 AUDIO
TITLE "Cry Out"
PERFORMER "Leatherwolf"
INDEX 00 15:04:22
INDEX 01 15:05:02
TRACK 05 AUDIO
TITLE "Gypsies & Thieves"
PERFORMER "Leatherwolf"
INDEX 00 20:08:50
INDEX 01 20:09:00
TRACK 06 AUDIO
TITLE "Bad Moon Rising"
PERFORMER "Leatherwolf"
INDEX 00 24:49:00
INDEX 01 24:50:57
TRACK 07 AUDIO
TITLE "Princess Of Love"
PERFORMER "Leatherwolf"
INDEX 00 27:29:40
INDEX 01 27:30:52
TRACK 08 AUDIO
TITLE "Magical Eyes"
PERFORMER "Leatherwolf"
INDEX 00 30:52:15
INDEX 01 30:53:00
TRACK 09 AUDIO
TITLE "Rule The Night"
PERFORMER "Leatherwolf"
INDEX 00 33:55:65
INDEX 01 33:57:05


"Лог"
Exact Audio Copy V0.99 prebeta 5 from 4. May 2009

Отчёт EAC об извлечении, выполненном 24. сентября 2010, 10:03

Leatherwolf / Leatherwolf [P33D-20050]

Дисковод: Optiarc DVD RW AD-7200A Adapter: 1 ID: 0

Режим чтения : Достоверность
Использование точного потока : Да
Отключение кэша аудио : Да
Использование указателей C2 : Нет

Коррекция смещения при чтении : 48
Способность читать области Lead-in и Lead-out : Нет
Заполнение пропущенных сэмплов тишиной : Да
Удаление блоков с тишиной в начале и конце : Нет
При вычислениях CRC использовались нулевые сэмплы : Да
Интерфейс : Встроенный Win32-интерфейс для Win NT/2000

Выходной формат : Пользовательский кодировщик
Выбранный битрейт : 128 kBit/s
Качество : Высокий
Добавление ID3-тэга : Нет
Утилита сжатия : C:\Program Files\Exact Audio Copy\Flac\flac.exe
Дополнительные параметры : -8 -V -T "artist=%a" -T "title=%t" -T "album=%g" -T "date=%y" -T "tracknumber=%n" -T "genre=%m" -T "comment=EAC


TOC извлечённого CD

Трек | Старт | Длительность | Начальный сектор | Конечный сектор
---------------------------------------------------------------------
1 | 0:00.00 | 6:26.42 | 0 | 28991
2 | 6:26.42 | 4:03.73 | 28992 | 47289
3 | 10:30.40 | 4:34.37 | 47290 | 67876
4 | 15:05.02 | 5:03.73 | 67877 | 90674
5 | 20:09.00 | 4:41.57 | 90675 | 111806
6 | 24:50.57 | 2:39.70 | 111807 | 123801
7 | 27:30.52 | 3:22.23 | 123802 | 138974
8 | 30:53.00 | 3:04.05 | 138975 | 152779
9 | 33:57.05 | 4:31.67 | 152780 | 173171


Характеристики диапазона извлечения и сообщения об ошибках

Выбранный диапазон

Имя файла Y:\Музыка\Leatherwolf\1987 Leatherwolf\Leatherwolf - Leatherwolf [P33D-20050].wav

Пиковый уровень 100.0 %
Качество диапазона 100.0 %
CRC копии D9B5FE59
Копирование... OK

Ошибок не произошло


AccurateRip: сводка

Трек 1 точное извлечение (доверие 1) [6BF46B9A]
Трек 2 точное извлечение (доверие 1) [625CEA7E]
Трек 3 точное извлечение (доверие 1) [6C053ABC]
Трек 4 точное извлечение (доверие 1) [7688679E]
Трек 5 точное извлечение (доверие 1) [59A41E55]
Трек 6 точное извлечение (доверие 1) [57B26703]
Трек 7 точное извлечение (доверие 1) [E99825A4]
Трек 8 точное извлечение (доверие 1) [C0E87DA8]
Трек 9 точное извлечение (доверие 1) [B7E4C35F]

Все треки извлечены точно

Конец отчёта


Состав:
Michael Olivieri: Vocals
Geoffrey Gayer: Guitars
Carey Howe: Guitars
Paul Carman: Bass
Dean Roberts: Drums
Richard Gibbs: Keyboards

P33D-20050

_________________
Витасу до Даймонда как Алсу до Руссоса | При переразмещении - спрашивать разрешение!!


Last edited by iezuit on 24 Sep 2010, edited 1 time in total.

Top
 Profile  
 
 
PostPosted: 24 Sep 2010 
Хиппей (support team)
User avatar
Joined: 30 Jul 2007
Posts: 116119
Lоcаtion: Киев (Kyiv, UA)
Age: 46
Name: Andrey
:true: :thanx:

_________________


Top
 Profile E-mail  
 
 
PostPosted: 24 Sep 2010 
А может смените мне статус?..
User avatar
Joined: 24 Dec 2008
Posts: 650
Age: 45
Name: Дмитрий
Спасибо, обновлю. :losik:


Top
 Profile  
 
 
PostPosted: 24 Sep 2010 
Позитивный Южанин
User avatar
Joined: 07 May 2010
Posts: 1620
Lоcаtion: КРЫМ
Age: 44
Name: Алексей
Первая информация о банде из журнала ровесник)Вот для потехи разыскать и отсканить для хохмы)
:true:

_________________
WATER'EM ALL!


Top
 Profile E-mail  
 
 
PostPosted: 24 Sep 2010 
Персональный статус
Joined: 14 May 2010
Posts: 236
Age: 38
Name: Денис
Спасибо, хороший альбум. :true:


Top
 Profile  
 
 
PostPosted: 29 Sep 2010 
Почётный металлург
User avatar
Joined: 15 Sep 2007
Posts: 4358
Lоcаtion: Хабаровск
Age: 59
Name: чуть выше
Спасибо!

_________________
Коль будешь людей ты ослами честить,
тебе человеком меж них не прослыть!
(Саади, персидский поэт, 13в.)


Top
 Profile  
 
 
PostPosted: 29 Sep 2010 
Gretzky must die
User avatar
Joined: 16 Sep 2010
Posts: 265
Lоcаtion: Московская обл.
Name: Андрей
Это я так понимаю, Leatherwolf II ? У них дебютник и второй альбом называются одинаково, хотя содержимое полностью разное...Спасибо за "японца", Дима ! Славная команда. :thanx: :thanx: :thanx: :thanx: :thanx: :thanx: :thanx:


Top
 Profile  
 
Display posts from previous:  Sort by  
Post new topic Reply to topic  [ 7 posts ] 

All times are UTC + 3 hours


Who is online

Users browsing this forum: No registered users and 4 guests


You cannot post new topics in this forum
You cannot reply to topics in this forum
You cannot edit your posts in this forum
You cannot delete your posts in this forum
You cannot post attachments in this forum

Search for:
Яндекс.Метрика
Powered by phpBB © 2000, 2002, 2005, 2007 phpBB Group