\m/ 80's metal \m/

Информационно-аналитический форум "80 см пыли" (In Search We Trust) "У нас никто никуда не спешит"
Me For You - http://me-4u.com
It is currently 18 Jun 2019

All times are UTC + 3 hours

Spoiler
Chat - temporary registration for foreign users (please leave your application here)







Post new topic Reply to topic  [ 9 posts ] 
Author Message
 
PostPosted: 23 Aug 2010 
ыыыы
User avatar
Joined: 17 May 2009
Posts: 952
Lоcаtion: Пушкино, МО
Age: 40
Name: Дмитрий
Image


Жанр: Hard Rock
Происхождение исполнителя: США
Год издания: 1990
Год издания данного носителя: 1990
Страна-производитель носителя: Япония
Аудио кодек: FLAC
Тип рипа: image+.cue
Битрейт аудио: lossless
Продолжительность: 50:22
Рип: Собственный
Лейбл: RCA/BMG VICTOR
Каталоговый номер: BVCP-7
Матрица: BVCP-7-A2K 11 V (JVC)

Треклист:
1. Your Wake Up Call 02:00
2. Hungry 04:58
3. Dedication 03:34
4. Stiletto 4:38
5. Lisa 04:45
6. The Ripper 05:20
7. Big Gun 04:37
8. Only Women Bleed (Alice Cooper Cover) 06:03
9. Bad Boy 04:00
10. Aces & Eights 04:20
11. Cherry Red 04:09
12. Outro 01:58

"Куй"
REM GENRE "Hard Rock"
REM DATE 1990
REM DISCID A50BCE0C
REM COMMENT "ExactAudioCopy v0.99pb5"
PERFORMER "Lita Ford"
TITLE "Stiletto [BVCP-7]"
FILE "Lita Ford - Stiletto [BVCP-7].flac" WAVE
TRACK 01 AUDIO
TITLE "Your Wake Up Call"
PERFORMER "Lita Ford"
INDEX 00 00:00:00
INDEX 01 00:00:37
TRACK 02 AUDIO
TITLE "Hungry"
PERFORMER "Lita Ford"
INDEX 01 02:00:70
TRACK 03 AUDIO
TITLE "Dedication"
PERFORMER "Lita Ford"
INDEX 00 06:57:36
INDEX 01 06:58:62
TRACK 04 AUDIO
TITLE "Stiletto"
PERFORMER "Lita Ford"
INDEX 00 10:31:36
INDEX 01 10:32:67
TRACK 05 AUDIO
TITLE "Lisa"
PERFORMER "Lita Ford"
INDEX 00 15:09:48
INDEX 01 15:10:62
TRACK 06 AUDIO
TITLE "The Ripper"
PERFORMER "Lita Ford"
INDEX 00 19:54:62
INDEX 01 19:55:62
TRACK 07 AUDIO
TITLE "Big Gun"
PERFORMER "Lita Ford"
INDEX 01 25:15:67
TRACK 08 AUDIO
TITLE "Only Women Bleed"
PERFORMER "Lita Ford"
INDEX 00 29:52:61
INDEX 01 29:52:62
TRACK 09 AUDIO
TITLE "Bad Boys"
PERFORMER "Lita Ford"
INDEX 00 35:55:10
INDEX 01 35:56:12
TRACK 10 AUDIO
TITLE "Aces & Eights"
PERFORMER "Lita Ford"
INDEX 01 39:55:50
TRACK 11 AUDIO
TITLE "Cherry Red"
PERFORMER "Lita Ford"
INDEX 00 44:14:49
INDEX 01 44:15:62
TRACK 12 AUDIO
TITLE "Outro"
PERFORMER "Lita Ford"
INDEX 00 48:24:56
INDEX 01 48:24:57


"Лог"
Exact Audio Copy V0.99 prebeta 5 from 4. May 2009

Отчёт EAC об извлечении, выполненном 23. августа 2010, 20:50

Lita Ford / Stiletto [BVCP-7]

Дисковод: MATSHITADVD-RAM UJ-850S Adapter: 0 ID: 0

Режим чтения : Достоверность
Использование точного потока : Да
Отключение кэша аудио : Да
Использование указателей C2 : Нет

Коррекция смещения при чтении : 102
Способность читать области Lead-in и Lead-out : Нет
Заполнение пропущенных сэмплов тишиной : Да
Удаление блоков с тишиной в начале и конце : Нет
При вычислениях CRC использовались нулевые сэмплы : Да
Интерфейс : Установленный внешний ASPI-интерфейс

Выходной формат : Пользовательский кодировщик
Выбранный битрейт : 128 kBit/s
Качество : Высокий
Добавление ID3-тэга : Нет
Утилита сжатия : C:\Program Files\Exact Audio Copy\Flac\flac.exe
Дополнительные параметры : -6 -V -T "artist=%a" -T "title=%t" -T "album=%g" -T "date=%y" -T "tracknumber=%n" -T "genre=%m" -T "comment=EAC 0.99beta5 / FLAC 1.1.0 q6" %s


TOC извлечённого CD

Трек | Старт | Длительность | Начальный сектор | Конечный сектор
---------------------------------------------------------------------
1 | 0:00.37 | 2:00.33 | 37 | 9069
2 | 2:00.70 | 4:57.67 | 9070 | 31411
3 | 6:58.62 | 3:34.05 | 31412 | 47466
4 | 10:32.67 | 4:37.70 | 47467 | 68311
5 | 15:10.62 | 4:45.00 | 68312 | 89686
6 | 19:55.62 | 5:20.05 | 89687 | 113691
7 | 25:15.67 | 4:36.70 | 113692 | 134461
8 | 29:52.62 | 6:03.25 | 134462 | 161711
9 | 35:56.12 | 3:59.38 | 161712 | 179674
10 | 39:55.50 | 4:20.12 | 179675 | 199186
11 | 44:15.62 | 4:08.70 | 199187 | 217856
12 | 48:24.57 | 1:57.43 | 217857 | 226674


Характеристики диапазона извлечения и сообщения об ошибках

Выбранный диапазон

Имя файла Y:\Музыка\Lita Ford\1990 Stiletto\Lita Ford - Stiletto [BVCP-7].wav

Пиковый уровень 99.9 %
Качество диапазона 100.0 %
CRC копии 8742E65A
Копирование... OK

Ошибок не произошло


AccurateRip: сводка

Трек 1 точное извлечение (доверие 1) [2B394D25]
Трек 2 точное извлечение (доверие 1) [872723A0]
Трек 3 точное извлечение (доверие 1) [226A074B]
Трек 4 точное извлечение (доверие 1) [D93D6625]
Трек 5 точное извлечение (доверие 1) [2290CF3D]
Трек 6 точное извлечение (доверие 1) [CAE538E5]
Трек 7 точное извлечение (доверие 1) [8946F218]
Трек 8 точное извлечение (доверие 1) [23B7DCD7]
Трек 9 точное извлечение (доверие 1) [B93C2D51]
Трек 10 точное извлечение (доверие 1) [BEDA0903]
Трек 11 точное извлечение (доверие 1) [CC3E157B]
Трек 12 точное извлечение (доверие 1) [B8576623]

Все треки извлечены точно

Конец отчёта


Состав:
Lita Ford: Lead Vocals, Guitars
David Ezrin: Keyboards
Don Nossov: Bass
Myron Grombacher: Drums, Percussion

Additional Personnel:
Pablo Calagero: Baritone Sax
Richie Cannata: Tenor Sax
Barry Danelian: Trumpet
Kevin Osborne: Trombone, Backing Vocals
Mike Chapman: Backing Vocals
Tim Lawless: Backing Vocals
Ozzie Melendez: Backing Vocals
Horns Arranged By Richie Cannata & Kevin Osborne
Strings Arranged By Ralph Schuckett

BVCP-7

_________________
Витасу до Даймонда как Алсу до Руссоса | При переразмещении - спрашивать разрешение!!


Top
 Profile  
 
 
PostPosted: 23 Aug 2010 
Персональный статус
Joined: 14 May 2010
Posts: 236
Age: 37
Name: Денис
а вот и он.. стилет мэн.. Спасибо!!!

обишка девчачья :crazy:

Ozzie Melendez: Backing Vocals - оззие :nunu:
Kevin Osborne: - о да! тут одни Оззи :true:


Top
 Profile  
 
 
PostPosted: 23 Aug 2010 
ыыыы
User avatar
Joined: 17 May 2009
Posts: 952
Lоcаtion: Пушкино, МО
Age: 40
Name: Дмитрий
да уж-
David Ezrin: Keyboards - из самой демократичной нации парниша ))
Don Nossov: - кажется наш ))
Myron Grombacher: Drums, Percussion -Мирон Громба*** (Громовержец по ихнему) вроде? тоже наш! ))

_________________
Витасу до Даймонда как Алсу до Руссоса | При переразмещении - спрашивать разрешение!!


Top
 Profile  
 
 
PostPosted: 23 Aug 2010 
Персональный статус
Joined: 14 May 2010
Posts: 236
Age: 37
Name: Денис
ага.. и Барри Данельян :shok:


Top
 Profile  
 
 
PostPosted: 23 Aug 2010 
ыыыы
User avatar
Joined: 17 May 2009
Posts: 952
Lоcаtion: Пушкино, МО
Age: 40
Name: Дмитрий
ну а куда без них-то, Шеринянов-Данелянов))

_________________
Витасу до Даймонда как Алсу до Руссоса | При переразмещении - спрашивать разрешение!!


Top
 Profile  
 
 
PostPosted: 23 Aug 2010 
Персональный статус
Joined: 14 May 2010
Posts: 236
Age: 37
Name: Денис
хм.. на 345МБ наиграли. послушаем-с.


Top
 Profile  
 
 
PostPosted: 23 Aug 2010 
ыыыы
User avatar
Joined: 17 May 2009
Posts: 952
Lоcаtion: Пушкино, МО
Age: 40
Name: Дмитрий
да что там слушать- грусть тоска в-общем то. кроме Aces & Eights
:cry:

_________________
Витасу до Даймонда как Алсу до Руссоса | При переразмещении - спрашивать разрешение!!


Top
 Profile  
 
 
PostPosted: 23 Aug 2010 
Персональный статус
Joined: 14 May 2010
Posts: 236
Age: 37
Name: Денис
Нормалёк.. что-то уныло, а что-то понравилось. Aces & Eights - да и ещё Cherry Red. Будет у меня вечерней летней музыкой. :meloman:

А ещё The Ripper - неплохая.


Top
 Profile  
 
 
PostPosted: 24 Aug 2010 
Хиппей (support team)
User avatar
Joined: 30 Jul 2007
Posts: 113079
Lоcаtion: Киев (Kyiv, UA)
Age: 46
Name: Andrey
Забираю оптом всех. Спасибке! :thanx:

_________________


Top
 Profile E-mail  
 
Display posts from previous:  Sort by  
Post new topic Reply to topic  [ 9 posts ] 

All times are UTC + 3 hours


Who is online

Users browsing this forum: No registered users and 2 guests


You cannot post new topics in this forum
You cannot reply to topics in this forum
You cannot edit your posts in this forum
You cannot delete your posts in this forum
You cannot post attachments in this forum

Search for:
Яндекс.Метрика
cron
Powered by phpBB © 2000, 2002, 2005, 2007 phpBB Group