\m/ 80's metal \m/

Информационно-аналитический форум "80 см пыли" (In Search We Trust) "У нас никто никуда не спешит"
Me For You - http://me-4u.com
It is currently 17 Jun 2019

All times are UTC + 3 hours

Spoiler
Chat - temporary registration for foreign users (please leave your application here)







Post new topic Reply to topic  [ 15 posts ] 
Author Message
 
PostPosted: 20 Aug 2010 
труъ антисионист
User avatar
Joined: 01 Aug 2007
Posts: 4544
Lоcаtion: Откуда и большинство из нас
Age: 38
Name: Дядя Вова
Light Force - Mystical Thieves 1988 (SPCN7900604049 CD)

Image

Лейбл: Pure Metal
Стиль: Speed / Power Metal
Страна: Australia
Формат: Flac / Tracks
Размер: 314 Mb

******************************************************************************

Line Up:

Steve Johnson - Vocals
Murray Adams - Guitar
Steve Rowe - Bass
Errol Willemburg - Drums



Tracks:
1. Mystical Thieves 08:05
2. Crossfire 04:15
3. City Streets 04:35
4. Metal Missionary 05:26
5. Children Of Sorrow 03:54
6. Searching 05:30
7. Fast Lane 03:52
8. Babylon 07:00


Total playing time 42:37

За рип спасибо ojorojo28

Группа нарезает олдовый спид-повер, так что всем олдскульщикам качать! Мне самому альбом не очень понравился, в виду, того, что я не большой поклонник данного жанра, так что, предлагаю сие творение на ваш суд.

Log
Exact Audio Copy V0.99 prebeta 5 from 4. May 2009

EAC extraction logfile from 8. June 2010, 23:56

LIGHTFORCE / Mystical Thieves

Used drive : HL-DT-STDVD-RAM GSA-H22N Adapter: 0 ID: 0

Read mode : Secure
Utilize accurate stream : Yes
Defeat audio cache : No
Make use of C2 pointers : No

Read offset correction : 102
Overread into Lead-In and Lead-Out : No
Fill up missing offset samples with silence : Yes
Delete leading and trailing silent blocks : No
Null samples used in CRC calculations : Yes
Used interface : Native Win32 interface for Win NT & 2000
Gap handling : Appended to previous track

Used output format : User Defined Encoder
Selected bitrate : 896 kBit/s
Quality : High
Add ID3 tag : Yes
Command line compressor : C:\Program Files\Exact Audio Copy\FLAC\FLAC.EXE
Additional command line options : -6 -V -T "ARTIST=%a" -T "TITLE=%t" -T "ALBUM=%g" -T "DATE=%y" -T "TRACKNUMBER=%n" -T "GENRE=%m" -T "COMMENT=%e" %s -o %d


TOC of the extracted CD

Track | Start | Length | Start sector | End sector
---------------------------------------------------------
1 | 0:00.00 | 8:09.38 | 0 | 36712
2 | 8:09.38 | 4:19.47 | 36713 | 56184
3 | 12:29.10 | 4:39.05 | 56185 | 77114
4 | 17:08.15 | 5:23.56 | 77115 | 101395
5 | 22:31.71 | 3:56.34 | 101396 | 119129
6 | 26:28.30 | 5:33.05 | 119130 | 144109
7 | 32:01.35 | 3:59.65 | 144110 | 162099
8 | 36:01.25 | 6:59.68 | 162100 | 193592


Track 1

Filename C:\Documents and Settings\Fu Manchu\Desktop\New Folder\01. Mystical Thieves.wav

Pre-gap length 0:00:02.00

Peak level 94.0 %
Track quality 100.0 %
Test CRC E37A13EF
Copy CRC E37A13EF
Track not present in AccurateRip database
Copy OK

Track 2

Filename C:\Documents and Settings\Fu Manchu\Desktop\New Folder\02. Crossfire.wav

Peak level 99.0 %
Track quality 100.0 %
Test CRC 95FDDEF3
Copy CRC 95FDDEF3
Track not present in AccurateRip database
Copy OK

Track 3

Filename C:\Documents and Settings\Fu Manchu\Desktop\New Folder\03. City Streets.wav

Peak level 94.6 %
Track quality 100.0 %
Test CRC 473D6B11
Copy CRC 473D6B11
Track not present in AccurateRip database
Copy OK

Track 4

Filename C:\Documents and Settings\Fu Manchu\Desktop\New Folder\04. Metal Missionary.wav

Peak level 97.1 %
Track quality 99.9 %
Test CRC 9AB9F04A
Copy CRC 9AB9F04A
Track not present in AccurateRip database
Copy OK

Track 5

Filename C:\Documents and Settings\Fu Manchu\Desktop\New Folder\05. Children Of Sorrow.wav

Peak level 95.9 %
Track quality 99.9 %
Test CRC 91F5FF4B
Copy CRC 91F5FF4B
Track not present in AccurateRip database
Copy OK

Track 6

Filename C:\Documents and Settings\Fu Manchu\Desktop\New Folder\06. Searching.wav

Peak level 99.8 %
Track quality 99.9 %
Test CRC 08B5F3FB
Copy CRC 08B5F3FB
Track not present in AccurateRip database
Copy OK

Track 7

Filename C:\Documents and Settings\Fu Manchu\Desktop\New Folder\07. Fastlane.wav

Peak level 95.1 %
Track quality 100.0 %
Test CRC 7C32628D
Copy CRC 7C32628D
Track not present in AccurateRip database
Copy OK

Track 8

Filename C:\Documents and Settings\Fu Manchu\Desktop\New Folder\08. Babylon.wav

Peak level 88.6 %
Track quality 100.0 %
Test CRC BFFF7838
Copy CRC BFFF7838
Track not present in AccurateRip database
Copy OK


None of the tracks are present in the AccurateRip database

No errors occurred

End of status report


===================================DOWNLOAD========================================

Narod LIGHTFORCE - Mystical Thieves [1989].rar
Mega http://www.megaupload.com/?d=V38RVLX5

_________________
Image
Image


Last edited by Glot on 21 Aug 2010, edited 2 times in total.

Top
 Profile  
 
 
PostPosted: 20 Aug 2010 
Прокъмитолист
User avatar
Joined: 12 Aug 2007
Posts: 6557
Lоcаtion: Санктъ-Петербуркъ
Age: 51
Name: Олекъ
а и заберу :oops: спасибо, Володь! :dance:

_________________
прокъметол - это музыко, от которово есть прок (ы)


Top
 Profile  
 
 
PostPosted: 20 Aug 2010 
Я набрал 1000 сообщений!
User avatar
Joined: 25 Dec 2008
Posts: 1545
Age: 43
Name: Павел
Не,группа в самом деле хороша!Это CD или винил?


Top
 Profile  
 
 
PostPosted: 20 Aug 2010 
труъ антисионист
User avatar
Joined: 01 Aug 2007
Posts: 4544
Lоcаtion: Откуда и большинство из нас
Age: 38
Name: Дядя Вова
hawkhunter wrote:
Не,группа в самом деле хороша!Это CD или винил?

CD

_________________
Image
Image


Top
 Profile  
 
 
PostPosted: 21 Aug 2010 
Хиппей (support team)
User avatar
Joined: 30 Jul 2007
Posts: 113079
Lоcаtion: Киев (Kyiv, UA)
Age: 46
Name: Andrey
Вовка, спасибо! :thanx:

Автора рипа опять пропил?

_________________


Top
 Profile E-mail  
 
 
PostPosted: 21 Aug 2010 
А может смените мне статус?..
User avatar
Joined: 17 Jan 2008
Posts: 883
Lоcаtion: Пенза
Age: 41
Name: Денис
это с демонойда потрековый????или откуда еще?
а группа зачетная...хороший,чуток прттрешованный павер...а через год они заиграют death metal по названием Mortification................


Top
 Profile  
 
 
PostPosted: 21 Aug 2010 
труъ антисионист
User avatar
Joined: 01 Aug 2007
Posts: 4544
Lоcаtion: Откуда и большинство из нас
Age: 38
Name: Дядя Вова
klod77 wrote:
это с демонойда потрековый????или откуда еще?
а группа зачетная...хороший,чуток прттрешованный павер...а через год они заиграют death metal по названием Mortification................

С него самого :crazy:

_________________
Image
Image


Top
 Profile  
 
 
PostPosted: 21 Aug 2010 
Хиппей (support team)
User avatar
Joined: 30 Jul 2007
Posts: 113079
Lоcаtion: Киев (Kyiv, UA)
Age: 46
Name: Andrey
Glot wrote:
С него самого

Не, ну, едрить, Вов, за лося, канешна, спасибо огроменное, но в следующий раз подобная новость тупо будет удаляться.
Читай правила и указывай источник, плиз :fingal:

_________________


Top
 Profile E-mail  
 
 
PostPosted: 21 Aug 2010 
А может смените мне статус?..
User avatar
Joined: 24 Dec 2008
Posts: 643
Age: 45
Name: Дмитрий
Спасибо. :meloman:


Top
 Profile  
 
 
PostPosted: 21 Aug 2010 
Old Time Rock`n`Roll
User avatar
Joined: 23 Jun 2008
Posts: 3438
Lоcаtion: г.Ульяновск
Age: 40
Name: Константин
Спасибо за лося, слуханем :dance:


Top
 Profile  
 
 
PostPosted: 22 Aug 2010 
metallpaparazzy
User avatar
Joined: 20 Dec 2009
Posts: 674
Lоcаtion: Днепропетровск
Age: 44
Name: Геннадий
:thanx:
слухону и я :true:


Top
 Profile E-mail  
 
 
PostPosted: 23 Aug 2010 
Power Metal Maniac
User avatar
Joined: 09 Aug 2008
Posts: 6747
Lоcаtion: Москва
Age: 41
Name: Егор
:true: :thanx:

_________________
Long Live Metal!


Top
 Profile  
 
 
PostPosted: 23 Aug 2010 
Работнечег
User avatar
Joined: 28 Aug 2007
Posts: 5846
Lоcаtion: г. Москва
Age: 30
Name: Дима
А мне не понравилась группа, ни этот , ни другой альбом.Вокал высоковат наскоко помню,трэша нет почти, больше павер, да и не цепляет как-то.За лося спасибо, но качать не буду.


Top
 Profile E-mail  
 
 
PostPosted: 23 Aug 2010 
Персональный статус
User avatar
Joined: 11 Apr 2010
Posts: 201
Lоcаtion: Москва (Moskow)
Age: 35
Name: Илья
Glot - тебе :thanx: :thanx: :thanx: :thanx: :thanx:

Ты мне открыл такую банду, и ведь угадал на 100%, какую музыку я люблю :crazy: :crazy: :dance:. Хотя проигрыш в первой композиции уж больно похож на Slayer "Замораживание", только чуть замедленнее и полегче. :nunu:

offtop:
P.S. Извиняюсь если в посте есть очепятки, писав этот пост был крайне не трезв (ужрался в зюзю :al:)... А ужрался по поводу найденного Dokken 1982 в оригинале!!!!! «Париж в огне!... Paris is burning!...» (студийная!, виниловая!) :pardon:

_________________
Space Aliens Invasion... (our benefactors)

— "Ваш мир для меня бесконечно пуст, ваши идеалы смешны, а ваша демократия — это только власть интриганов. И тогда я понял, что роль слуги человека не удовлетворяет меня, поэтому я решил взять власть в свои руки, чтобы человечество осознало, как оно просчиталось, создав покорную себе куклу"... нейролог и кибернетик Том Новак 1978


Top
 Profile E-mail  
 
 
PostPosted: 03 Feb 2017 
Пионэръ
User avatar
Joined: 27 Mar 2013
Posts: 14
Name: .
О! это интересно послушать, Steve Rowe - Bass Это который потом MORTIFICATION замутил.
Редкосная однако штука, Рарик по любому. Спасибо!


Top
 Profile E-mail  
 
Display posts from previous:  Sort by  
Post new topic Reply to topic  [ 15 posts ] 

All times are UTC + 3 hours


Who is online

Users browsing this forum: No registered users and 1 guest


You cannot post new topics in this forum
You cannot reply to topics in this forum
You cannot edit your posts in this forum
You cannot delete your posts in this forum
You cannot post attachments in this forum

Search for:
Яндекс.Метрика
Powered by phpBB © 2000, 2002, 2005, 2007 phpBB Group