\m/ 80's metal \m/

Информационно-аналитический форум "80 см пыли" (In Search We Trust) "У нас никто никуда не спешит"
Me For You - http://me-4u.com
It is currently 09 Dec 2019

All times are UTC + 3 hours

Spoiler
Chat - temporary registration for foreign users (please leave your application here)







Post new topic Reply to topic  [ 12 posts ] 
Author Message
 
PostPosted: 24 Jun 2010 
Я набрал 1000 сообщений!
User avatar
Joined: 25 Dec 2008
Posts: 1545
Age: 44
Name: Павел
Leviathan - Leviathan(EP)
Country:USA
Year:1992
Genre:Power/Progressive Metal
Format:APE+cue+log
Size:139Mb

Image
log
Отчёт EAC об извлечении, выполненном 24. июня 2010, 21:51 для диска:
Leviathan / Leviathan

Дисковод: TSSTcorpCD/DVDW SH-S182D Adapter: 0 ID: 0
Режим чтения: Достоверный (C2: нет, Точный поток: да, Отключение кэша: да)
Коррекция смещения при чтении: 6
Способность читать области Lead-in и Lead-out : Нет

Выходной формат: Внутренние WAV-операции
44.100 Гц; 16 бит; стерео

Другие параметры:
Заполнение пропущенных сэмплов тишиной : Да
Удаление блоков с тишиной в начале и конце : Нет
Установленный внешний ASPI-интерфейс


Характеристики диапазона извлечения и сообщения об ошибках
Выбранный диапазон
Имя файла D:\музыка new\Leviathan - Leviathan(EP)\Leviathan - Leviathan.wav

Пиковый уровень 89.6 %
Качество диапазона 100.0 %
CRC DD77A48A
Копирование... OK

Ошибок не произошло

Конец отчёта

cue
REM DISCID 2E057D05
REM COMMENT "ExactAudioCopy v0.95b4"
PERFORMER "Leviathan "
TITLE "Leviathan"
FILE "Leviathan - Leviathan.wav" WAVE
TRACK 01 AUDIO
TITLE "Fear of Change"
PERFORMER "Leviathan "
INDEX 01 00:00:00
TRACK 02 AUDIO
TITLE "Degenerating Paradise"
PERFORMER "Leviathan "
INDEX 01 05:09:52
TRACK 03 AUDIO
TITLE "Two Roads to Nowhere"
PERFORMER "Leviathan "
INDEX 01 08:50:07
TRACK 04 AUDIO
TITLE "Beast of Burden"
PERFORMER "Leviathan "
INDEX 01 13:08:00
TRACK 05 AUDIO
TITLE "Leviathan"
PERFORMER "Leviathan "
INDEX 00 17:16:70
INDEX 01 17:17:45


Дебютный миник культовой прог/пауэр-метал команды из США(Колорадо).
Собственный рип.
Tracklist:
1.Fear of Change
2.Degenerating Paradise
3.Two Roads to Nowhere
4.Beast of Burden
5.Leviathan

Leviathan - Leviathan(EP).rar
Covers.rar


Last edited by hawkhunter on 29 Jun 2010, edited 2 times in total.

Top
 Profile  
 
 
PostPosted: 24 Jun 2010 
Прокъмитолист
User avatar
Joined: 12 Aug 2007
Posts: 6650
Lоcаtion: Санктъ-Петербуркъ
Age: 52
Name: Олекъ
ААААААААААААААААААААААААААААААААААААААА
в смысле "огромное тебе спасибо, Паша, за столь редкую вещь" :true: :true: :true:

_________________
прокъметол - это музыко, от которово есть прок (ы)


Top
 Profile  
 
 
PostPosted: 24 Jun 2010 
А может смените мне статус?..
Joined: 03 Jul 2009
Posts: 891
Lоcаtion: Serbia
Name: Laki
Absolutely awesome post. Thanks !!!


Top
 Profile E-mail  
 
 
PostPosted: 24 Jun 2010 
Хиппей (support team)
User avatar
Joined: 30 Jul 2007
Posts: 116023
Lоcаtion: Киев (Kyiv, UA)
Age: 46
Name: Andrey
Паша, спасибо!!! :true:

_________________


Top
 Profile E-mail  
 
 
PostPosted: 25 Jun 2010 
Metal Collector
User avatar
Joined: 16 Nov 2008
Posts: 1278
Lоcаtion: Химки
Age: 36
Name: Андрей
Охохо, спасибо! Помню, на ннм-е когда в мп3 320 пробегал, понравился.


Top
 Profile E-mail  
 
 
PostPosted: 25 Jun 2010 
Почётный металлург
User avatar
Joined: 15 Sep 2007
Posts: 4358
Lоcаtion: Хабаровск
Age: 59
Name: чуть выше
Благодарю!

_________________
Коль будешь людей ты ослами честить,
тебе человеком меж них не прослыть!
(Саади, персидский поэт, 13в.)


Top
 Profile  
 
 
PostPosted: 25 Jun 2010 
Power Metal Maniac
User avatar
Joined: 09 Aug 2008
Posts: 6993
Lоcаtion: Москва
Age: 41
Name: Егор
:thanx: не забыть скачать

_________________
Long Live Metal!


Top
 Profile  
 
 
PostPosted: 25 Jun 2010 
адын фелософъ прокметолу
User avatar
Joined: 22 Oct 2009
Posts: 2790
Lоcаtion: Сочи
Age: 42
Name: Сергей
Ну наконец-то дождались. Спасибо Паша. :thanx: :true:

_________________
Я ненавижу гранж и альтернативную музыку


Top
 Profile E-mail  
 
 
PostPosted: 27 Jun 2010 
спирт 100%
User avatar
Joined: 22 Sep 2008
Posts: 4500
Age: 48
Name: Саня
Павел, БОЛЬШОЕ СПАСИБО! :thanx: :true:


Top
 Profile  
 
 
PostPosted: 29 Jun 2010 
Я набрал 1000 сообщений!
User avatar
Joined: 25 Dec 2008
Posts: 1545
Age: 44
Name: Павел
Отсканировал коврики-ссылку добавил(см.выше).


Top
 Profile  
 
 
PostPosted: 29 Jun 2010 
Прокъмитолист
User avatar
Joined: 12 Aug 2007
Posts: 6650
Lоcаtion: Санктъ-Петербуркъ
Age: 52
Name: Олекъ
Паш, спасибо за облоги :thanx: :true: а то без них как-то неполноценно релиз выглядит :oops:

_________________
прокъметол - это музыко, от которово есть прок (ы)


Top
 Profile  
 
 
PostPosted: 29 Jun 2010 
Я набрал 1000 сообщений!
User avatar
Joined: 25 Dec 2008
Posts: 1545
Age: 44
Name: Павел
Ага,сканер на работе нашелся! :dance:


Top
 Profile  
 
Display posts from previous:  Sort by  
Post new topic Reply to topic  [ 12 posts ] 

All times are UTC + 3 hours


Who is online

Users browsing this forum: No registered users and 1 guest


You cannot post new topics in this forum
You cannot reply to topics in this forum
You cannot edit your posts in this forum
You cannot delete your posts in this forum
You cannot post attachments in this forum

Search for:
Яндекс.Метрика
cron
Powered by phpBB © 2000, 2002, 2005, 2007 phpBB Group