\m/ 80's metal \m/

Информационно-аналитический форум "80 см пыли" (In Search We Trust) "У нас никто никуда не спешит"
Me For You - http://me-4u.com
It is currently 25 Apr 2019

All times are UTC + 3 hours

Spoiler
Chat - temporary registration for foreign users (please leave your application here)







Post new topic Reply to topic  [ 2 posts ] 
Author Message
 
PostPosted: 03 Jun 2010 
ыыыы
User avatar
Joined: 17 May 2009
Posts: 952
Lоcаtion: Пушкино, МО
Age: 40
Name: Дмитрий
Image


Жанр: Heavy Metal
Происхождение исполнителя: США
Год издания: 1986
Год издания данного носителя: 1987
Страна-производитель носителя: Япония
Аудио кодек: FLAC
Тип рипа: image+.cue
Битрейт аудио: lossless
Продолжительность: 69:09
Рип: Собственный
Лейбл: METAL BLADE/SMS
Каталоговый номер: MP38-5114
Матрица: MP38-5114-V1F 13 (JVC)

Треклист:
1. Council For The Cauldron 04:47
2. Flesh Eater 03:03
3. Warfare 04:11
4. No Time To Lose 02:39
5. Rod Of Iron 05:26
6. Save Me 03:20
7. Godiva 02:32
8. Psychopath 03:53
9. Love You To Pieces 05:10
10. Live And Let Die (Paul McCartney cover) 03:46
11. Kiss Of Death 02:29
12. Red Rum 05:06
13. American Metal 06:02
14. Give 'Em The Axe 02:47
15. Finale 03:40
16. Dead Serious * 04:46
17. (Wake Up) Time To Die * 06:11

"Куй"
REM GENRE "Heavy Metal"
REM DATE 1986
REM DISCID EE105B11
REM COMMENT "ExactAudioCopy v0.99pb5"
PERFORMER "Lizzy Borden"
TITLE "The Murderess Metal Road Show [MP38-5114]"
FILE "Lizzy Borden - The Murderess Metal Road Show [MP38-5114].flac" WAVE
TRACK 01 AUDIO
TITLE "Council For The Cauldron"
PERFORMER "Lizzy Borden"
INDEX 00 00:00:00
INDEX 01 00:00:37
TRACK 02 AUDIO
TITLE "Flesheater"
PERFORMER "Lizzy Borden"
INDEX 00 04:46:57
INDEX 01 04:47:27
TRACK 03 AUDIO
TITLE "Warfare"
PERFORMER "Lizzy Borden"
INDEX 01 07:50:30
TRACK 04 AUDIO
TITLE "No Time To Lose"
PERFORMER "Lizzy Borden"
INDEX 00 11:31:17
INDEX 01 12:01:65
TRACK 05 AUDIO
TITLE "Rod Of Iron"
PERFORMER "Lizzy Borden"
INDEX 01 14:40:60
TRACK 06 AUDIO
TITLE "Save Me"
PERFORMER "Lizzy Borden"
INDEX 00 20:06:45
INDEX 01 20:07:02
TRACK 07 AUDIO
TITLE "Godiva"
PERFORMER "Lizzy Borden"
INDEX 01 23:27:17
TRACK 08 AUDIO
TITLE "Psychopath"
PERFORMER "Lizzy Borden"
INDEX 00 25:53:05
INDEX 01 25:59:17
TRACK 09 AUDIO
TITLE "Love You To Pieces"
PERFORMER "Lizzy Borden"
INDEX 00 29:51:10
INDEX 01 29:52:40
TRACK 10 AUDIO
TITLE "Live And Let Die"
PERFORMER "Lizzy Borden"
INDEX 01 35:02:22
TRACK 11 AUDIO
TITLE "Kiss Of Death"
PERFORMER "Lizzy Borden"
INDEX 00 38:41:25
INDEX 01 38:48:05
TRACK 12 AUDIO
TITLE "Red Rum"
PERFORMER "Lizzy Borden"
INDEX 00 41:14:35
INDEX 01 41:16:60
TRACK 13 AUDIO
TITLE "American Metal"
PERFORMER "Lizzy Borden"
INDEX 00 46:02:22
INDEX 01 46:22:25
TRACK 14 AUDIO
TITLE "Give 'Em The Axe"
PERFORMER "Lizzy Borden"
INDEX 00 51:24:70
INDEX 01 52:23:65
TRACK 15 AUDIO
TITLE "Finale"
PERFORMER "Lizzy Borden"
INDEX 01 55:10:60
TRACK 16 AUDIO
TITLE "Dead Serious"
PERFORMER "Lizzy Borden"
INDEX 00 58:17:12
INDEX 01 58:51:20
TRACK 17 AUDIO
TITLE "(Wake Up) Time To Die"
PERFORMER "Lizzy Borden"
INDEX 00 63:35:57
INDEX 01 63:37:07


"Лог"
Exact Audio Copy V0.99 prebeta 5 from 4. May 2009

Отчёт EAC об извлечении, выполненном 31. мая 2010, 22:22

Lizzy Borden / The Murderess Metal Road Show [MP38-5114]

Дисковод: MATSHITADVD-RAM UJ-850S Adapter: 0 ID: 0

Режим чтения : Достоверность
Использование точного потока : Да
Отключение кэша аудио : Да
Использование указателей C2 : Нет

Коррекция смещения при чтении : 102
Способность читать области Lead-in и Lead-out : Нет
Заполнение пропущенных сэмплов тишиной : Да
Удаление блоков с тишиной в начале и конце : Нет
При вычислениях CRC использовались нулевые сэмплы : Да
Интерфейс : Установленный внешний ASPI-интерфейс

Выходной формат : Пользовательский кодировщик
Выбранный битрейт : 128 kBit/s
Качество : Высокий
Добавление ID3-тэга : Нет
Утилита сжатия : C:\Program Files\Exact Audio Copy\Flac\flac.exe
Дополнительные параметры : -6 -V -T "artist=%a" -T "title=%t" -T "album=%g" -T "date=%y" -T "tracknumber=%n" -T "genre=%m" -T "comment=EAC 0.99beta5 / FLAC 1.1.0 q6" %s


TOC извлечённого CD

Трек | Старт | Длительность | Начальный сектор | Конечный сектор
---------------------------------------------------------------------
1 | 0:00.37 | 4:46.65 | 37 | 21551
2 | 4:47.27 | 3:03.03 | 21552 | 35279
3 | 7:50.30 | 4:11.35 | 35280 | 54139
4 | 12:01.65 | 2:38.70 | 54140 | 66059
5 | 14:40.60 | 5:26.17 | 66060 | 90526
6 | 20:07.02 | 3:20.15 | 90527 | 105541
7 | 23:27.17 | 2:32.00 | 105542 | 116941
8 | 25:59.17 | 3:53.23 | 116942 | 134439
9 | 29:52.40 | 5:09.57 | 134440 | 157671
10 | 35:02.22 | 3:45.58 | 157672 | 174604
11 | 38:48.05 | 2:28.55 | 174605 | 185759
12 | 41:16.60 | 5:05.40 | 185760 | 208674
13 | 46:22.25 | 6:01.40 | 208675 | 235789
14 | 52:23.65 | 2:46.70 | 235790 | 248309
15 | 55:10.60 | 3:40.35 | 248310 | 264844
16 | 58:51.20 | 4:45.62 | 264845 | 286281
17 | 63:37.07 | 6:10.50 | 286282 | 314081


Характеристики диапазона извлечения и сообщения об ошибках

Выбранный диапазон

Имя файла Y:\Музыка\Lizzy Borden\1986 The Murderess Metal Road Show\Lizzy Borden - The Murderess Metal Road Show [MP38-5114].wav

Пиковый уровень 75.2 %
Качество диапазона 100.0 %
CRC копии E31FB229
Копирование... OK

Ошибок не произошло


AccurateRip: сводка

Трек 1 нет в базе данных
Трек 2 нет в базе данных
Трек 3 нет в базе данных
Трек 4 нет в базе данных
Трек 5 нет в базе данных
Трек 6 нет в базе данных
Трек 7 нет в базе данных
Трек 8 нет в базе данных
Трек 9 нет в базе данных
Трек 10 нет в базе данных
Трек 11 нет в базе данных
Трек 12 нет в базе данных
Трек 13 нет в базе данных
Трек 14 нет в базе данных
Трек 15 нет в базе данных
Трек 16 нет в базе данных
Трек 17 нет в базе данных

Ни одного трека нет в базе AccurateRip

Конец отчёта


Состав:
Lizzy Borden: Vocals
Gene Allen: Guitars
Alex Nelson: Guitars
Mikey Davis: Bass
Joey Scott: Drums

MP38-5114

_________________
Витасу до Даймонда как Алсу до Руссоса | При переразмещении - спрашивать разрешение!!


Top
 Profile  
 
 
PostPosted: 03 Jun 2010 
А может смените мне статус?..
User avatar
Joined: 24 Dec 2008
Posts: 635
Age: 45
Name: Дмитрий
Недавно посмотрел этот концерт - понравилось. :true:


Top
 Profile  
 
Display posts from previous:  Sort by  
Post new topic Reply to topic  [ 2 posts ] 

All times are UTC + 3 hours


Who is online

Users browsing this forum: No registered users and 1 guest


You cannot post new topics in this forum
You cannot reply to topics in this forum
You cannot edit your posts in this forum
You cannot delete your posts in this forum
You cannot post attachments in this forum

Search for:
Яндекс.Метрика
Powered by phpBB © 2000, 2002, 2005, 2007 phpBB Group