\m/ 80's metal \m/

Информационно-аналитический форум "80 см пыли" (In Search We Trust) "У нас никто никуда не спешит"
Me For You - http://me-4u.com
It is currently 24 Aug 2019

All times are UTC + 3 hours

Spoiler
Chat - temporary registration for foreign users (please leave your application here)







Post new topic Reply to topic  [ 15 posts ] 
Author Message
 
PostPosted: 22 May 2010 
Персональный статус
User avatar
Joined: 02 Jul 2009
Posts: 304
Name: Александр
Lord Grey - Lady of the Lake - 2002

Category: Hard Rock
Year: 2002
Label: Shire Records


Personnel
Earle Lord vocals
Geoff Gaboriault guitars
Ben Walburn guitars, lead vocals on track 5
Marc Kolodziej bass on tracks 4,5,6,8
John Giddings bass on tracks 1,2,3,7,9
Tony Silva drums

Tracks
1. Feel the Fire
2. Never Change Your Heart
3. Lady of the Lake
4. Premonition
5. Give My Life for You
6. Leave It in the Wild
7. Right or Wrong
8. Walk'N
9. Gypsy Soul

http://www.heavyharmonies.com/cgi-bin/g ... f+the+Lake


Top
 Profile E-mail  
 
 
PostPosted: 16 Nov 2012 
Rara avis
User avatar
Joined: 27 Jan 2009
Posts: 5215
Name: .
http://lossless-galaxy.ru/inostr/inostr ... -2002.html


Top
 Profile E-mail  
 
 
PostPosted: 16 Nov 2012 
Персональный статус
User avatar
Joined: 02 Jul 2009
Posts: 304
Name: Александр
404 . Ссылка умерла уж наверное года три назад . :umnik:


Top
 Profile E-mail  
 
 
PostPosted: 17 Nov 2012 
Rara avis
User avatar
Joined: 27 Jan 2009
Posts: 5215
Name: .
А попросить перелить? ;)


Top
 Profile E-mail  
 
 
PostPosted: 17 Nov 2012 
Персональный статус
User avatar
Joined: 02 Jul 2009
Posts: 304
Name: Александр
А у кого ?


Top
 Profile E-mail  
 
 
PostPosted: 17 Nov 2012 
консэрваторъ
User avatar
Joined: 11 Aug 2007
Posts: 17169
Lоcаtion: Псков
Age: 45
Name: Сергей
Ну да...
Quote:
Разместил: silay

Quote:
Пользователь с таким именем не найден.

Ещё на муле размещали, но док выключен уже...

_________________
THRASH 'EM ALL


Top
 Profile E-mail  
 
 
PostPosted: 17 Nov 2012 
Rara avis
User avatar
Joined: 27 Jan 2009
Posts: 5215
Name: .
А у кого ?

Quote:
Сказали спасибо (13): lazzurit, mishanya68, anna, chessov275, 11301979dd, andrej51, medvedevaa, hjndtqkth, aprilis, viktor960, ICHUB, vovik1556, abc. belih2011.

Я думаю, что можно написать одно сообщение и разослать :pardon:


Top
 Profile E-mail  
 
 
PostPosted: 17 Nov 2012 
консэрваторъ
User avatar
Joined: 11 Aug 2007
Posts: 17169
Lоcаtion: Псков
Age: 45
Name: Сергей
Как вариант, кстати да... помню просил в теме на метфаке посидить одну вещицу, глухо... а вот когда семерым в личку послал одинаковую мессагу двое сразу встали на раздачу... ещё было на ннм такое дело, альбом перезалили...

_________________
THRASH 'EM ALL


Top
 Profile E-mail  
 
 
PostPosted: 07 Aug 2013 
Хиппей (support team)
User avatar
Joined: 30 Jul 2007
Posts: 114077
Lоcаtion: Киев (Kyiv, UA)
Age: 46
Name: Andrey
http://lossless-galaxy.ru/inostr/inostr_hardrock/5765-lord-grey-lady-of-the-lake-2002.html

Кстати, а никого не смутило, что ссылка толком не отображается? тыц

_________________


Top
 Profile E-mail  
 
 
PostPosted: 07 Aug 2013 
Хиппей (support team)
User avatar
Joined: 30 Jul 2007
Posts: 114077
Lоcаtion: Киев (Kyiv, UA)
Age: 46
Name: Andrey
Ха =)) хороший сайт, их едрическую корневую систему мать :esel:
При попытке отправить личку одному из скачавших (киевлянину) вылетала птаха:

Quote:
Информация

Количество персональных сообщений получателя достигло максимального значения, в связи с чем он не может больше получать персональные сообщения.
:dance:

_________________


Top
 Profile E-mail  
 
 
PostPosted: 07 Aug 2013 
Хиппей (support team)
User avatar
Joined: 30 Jul 2007
Posts: 114077
Lоcаtion: Киев (Kyiv, UA)
Age: 46
Name: Andrey
И так у почти всех, кроме товаришки anna :pardon:
Ей и отправил просьбу поделиться лосём.

_________________


Top
 Profile E-mail  
 
 
PostPosted: 07 Aug 2013 
Хиппей (support team)
User avatar
Joined: 30 Jul 2007
Posts: 114077
Lоcаtion: Киев (Kyiv, UA)
Age: 46
Name: Andrey
О, просралось. Еще пятерым минимум отправил и насрал в камментах :dance:

_________________


Top
 Profile E-mail  
 
 
PostPosted: 16 Aug 2013 
Хиппей (support team)
User avatar
Joined: 30 Jul 2007
Posts: 114077
Lоcаtion: Киев (Kyiv, UA)
Age: 46
Name: Andrey
Ответ только что получил. Альбом через недельку-две будет.

_________________


Top
 Profile E-mail  
 
 
PostPosted: 02 Sep 2013 
Хиппей (support team)
User avatar
Joined: 30 Jul 2007
Posts: 114077
Lоcаtion: Киев (Kyiv, UA)
Age: 46
Name: Andrey
А можно я этого лося продам за всего лишь 200 рублей автору запроса?
Уж очь ща мороженового захотелось :cry: Движок перегрелся :vic:

_________________


Top
 Profile E-mail  
 
 
PostPosted: 02 Sep 2013 
Хиппей (support team)
User avatar
Joined: 30 Jul 2007
Posts: 114077
Lоcаtion: Киев (Kyiv, UA)
Age: 46
Name: Andrey
Lord Grey - 2002 - Lady Of The Lake [flacs]

Image
Image

eDisk l Narod

Нормальный такой молодёжный Hard Rock с типичным набором трэков примерно для начала 90-х: более менее скоростной и заводной трэк сменяет среднетемповой, затем в тему затесались две балладки (не очень понравились), и снова весёлая композиция и так дальше по шаблону.
Вокал? Да обычный, их таких сотни были, есть и будут еще. Вроде ни на кого не похож, а прислушаешься... Так и на того вокалиста и на другого исполнителя и даже на третьего с пятым. Ой, в общем, альбом на любителя.

5/10

За перезаливку лосика благодарим товарища Аркадия с сайта, ссылка на который находится чуть выше :thanx:

cue
REM GENRE "Christian Rock"
REM DATE 2002
REM DISCID 690A9A09
REM COMMENT "ExactAudioCopy v0.95b4"
PERFORMER "Lord Grey"
TITLE "Lady Of The Lake"
FILE "Lord Grey - Lady Of The Lake.wav" WAVE
TRACK 01 AUDIO
TITLE "Feel The Fire"
PERFORMER "Lord Grey"
INDEX 01 00:00:00
TRACK 02 AUDIO
TITLE "Never Change Your Heart"
PERFORMER "Lord Grey"
INDEX 01 04:22:19
TRACK 03 AUDIO
TITLE "Lady Of The Lake"
PERFORMER "Lord Grey"
INDEX 01 10:16:74
TRACK 04 AUDIO
TITLE "Premonition"
PERFORMER "Lord Grey"
INDEX 01 16:54:36
TRACK 05 AUDIO
TITLE "Give My Life For You"
PERFORMER "Lord Grey"
INDEX 01 22:03:29
TRACK 06 AUDIO
TITLE "Leave It In The Wild"
PERFORMER "Lord Grey"
INDEX 01 26:52:57
TRACK 07 AUDIO
TITLE "Right Or Wrong"
PERFORMER "Lord Grey"
INDEX 01 30:38:63
TRACK 08 AUDIO
TITLE "Walk'n"
PERFORMER "Lord Grey"
INDEX 01 34:56:37
TRACK 09 AUDIO
TITLE "Gypsy Soul"
PERFORMER "Lord Grey"
INDEX 01 39:02:61

_________________


Top
 Profile E-mail  
 
Display posts from previous:  Sort by  
Post new topic Reply to topic  [ 15 posts ] 

All times are UTC + 3 hours


Who is online

Users browsing this forum: No registered users and 1 guest


You cannot post new topics in this forum
You cannot reply to topics in this forum
You cannot edit your posts in this forum
You cannot delete your posts in this forum
You cannot post attachments in this forum

Search for:
Яндекс.Метрика
Powered by phpBB © 2000, 2002, 2005, 2007 phpBB Group