\m/ 80's metal \m/

Информационно-аналитический форум "80 см пыли" (In Search We Trust) "У нас никто никуда не спешит"
Me For You - http://me-4u.com
It is currently 21 Sep 2019

All times are UTC + 3 hours

Spoiler
Chat - temporary registration for foreign users (please leave your application here)







Post new topic Reply to topic  [ 14 posts ] 
Author Message
 
PostPosted: 05 May 2010 
мелосмертхстер
User avatar
Joined: 11 Jul 2008
Posts: 1058
Lоcаtion: (Әлмәт/Самара)
Age: 43
Name: Rus†Ⓐm
Leeway - Open Mouth Kiss 1995 [flac]

Image
Image
Image
ImageImage

Год: 1995
Стиль: Crossover/Thrash Metal
Страна: USA
Формат: Flac + Log + Cue
Размер: 260 mb

Трэклист :

1. Foot the Bill
2. Hornets Nest
3. Product
4. Jock Hop Show
5. Compromise
6. Manufabricate
7. State
8. The Old Man of Sorrows
9. I Believe
10. Comes Back to Haunt
11. Novena

log
EAC extraction logfile from 5. May 2010, 20:35 for CD
Leeway / Open Mouth Kiss

Used drive : TSSTcorpCDDVDW SH-S203B Adapter: 1 ID: 0
Read mode : Secure with NO C2, accurate stream, disable cache
Read offset correction : 6
Overread into Lead-In and Lead-Out : No

Used output format : Internal WAV Routines
44.100 Hz; 16 Bit; Stereo

Other options :
Fill up missing offset samples with silence : Yes
Delete leading and trailing silent blocks : No
Installed external ASPI interface


Range status and errors
Selected range
Filename C:\Documents and Settings\Администратор\Рабочий стол\Leeway - Open Mouth Kiss.wav

Peak level 100.0 %
Range quality 100.0 %
CRC E2D77039
Copy OK

No errors occured

End of status report


cue
REM GENRE "Crossover/Thrash Metal"
REM DATE 1995
REM DISCID 7A08800B
REM COMMENT "ExactAudioCopy v0.95b4"
PERFORMER "Leeway"
TITLE "Open Mouth Kiss"
FILE "Leeway - Open Mouth Kiss.flac" WAVE
TRACK 01 AUDIO
TITLE "Foot the Bill"
PERFORMER "Leeway"
INDEX 01 00:00:00
TRACK 02 AUDIO
TITLE "Hornets Nest"
PERFORMER "Leeway"
INDEX 01 03:22:22
TRACK 03 AUDIO
TITLE "Product"
PERFORMER "Leeway"
INDEX 01 07:04:72
TRACK 04 AUDIO
TITLE "Jock Hop Show"
PERFORMER "Leeway"
INDEX 01 10:13:45
TRACK 05 AUDIO
TITLE "Compromise"
PERFORMER "Leeway"
INDEX 00 13:55:62
INDEX 01 13:55:72
TRACK 06 AUDIO
TITLE "Manufabricate"
PERFORMER "Leeway"
INDEX 00 16:49:37
INDEX 01 16:49:47
TRACK 07 AUDIO
TITLE "State"
PERFORMER "Leeway"
INDEX 01 19:52:65
TRACK 08 AUDIO
TITLE "The Old Man of Sorrows"
PERFORMER "Leeway"
INDEX 00 24:17:25
INDEX 01 24:18:25
TRACK 09 AUDIO
TITLE "I Believe"
PERFORMER "Leeway"
INDEX 01 27:18:60
TRACK 10 AUDIO
TITLE "Comes Back to Haunt"
PERFORMER "Leeway"
INDEX 00 30:38:12
INDEX 01 30:38:25
TRACK 11 AUDIO
TITLE "Novena"
PERFORMER "Leeway"
INDEX 01 32:59:22


Leeway - Open Mouth Kiss 1995 [flac]

_________________
Everytime I Die

Image


Last edited by bodomchild76 on 06 Jul 2010, edited 1 time in total.

Top
 Profile E-mail  
 
 
PostPosted: 05 May 2010 
Хиппей (support team)
User avatar
Joined: 30 Jul 2007
Posts: 114411
Lоcаtion: Киев (Kyiv, UA)
Age: 46
Name: Andrey
:true:

_________________


Top
 Profile E-mail  
 
 
PostPosted: 06 May 2010 
Труъ
User avatar
Joined: 15 Dec 2008
Posts: 131
Lоcаtion: Донбасс
Age: 46
Name: Евгений
:thanx:


Top
 Profile  
 
 
PostPosted: 06 May 2010 
Прокъмитолист
User avatar
Joined: 12 Aug 2007
Posts: 6605
Lоcаtion: Санктъ-Петербуркъ
Age: 51
Name: Олекъ
и еще раз спасибо :thanx:

_________________
прокъметол - это музыко, от которово есть прок (ы)


Top
 Profile  
 
 
PostPosted: 06 May 2010 
Анатолий
User avatar
Joined: 18 Oct 2008
Posts: 3531
Lоcаtion: Армавир
Age: 42
Name: Анатолий
А дебютника ни у кого случайно нет в лосе? :oops:


Top
 Profile E-mail  
 
 
PostPosted: 14 Aug 2011 
Хиппей (support team)
User avatar
Joined: 30 Jul 2007
Posts: 114411
Lоcаtion: Киев (Kyiv, UA)
Age: 46
Name: Andrey
Хм... есть у кого возможность перезалить щас именно этот рип?

_________________


Top
 Profile E-mail  
 
 
PostPosted: 14 Aug 2011 
Хиппей (support team)
User avatar
Joined: 30 Jul 2007
Posts: 114411
Lоcаtion: Киев (Kyiv, UA)
Age: 46
Name: Andrey
Прикольно, что на ЛГ разместили ссылку Рустама, не удосужившись даже перелить =)

http://lossless-galaxy.ru/inostr/inostr ... -1995.html
http://ifolder.ru/18433972

_________________


Top
 Profile E-mail  
 
 
PostPosted: 17 Aug 2011 
ТрэшЭрос
User avatar
Joined: 18 Jul 2011
Posts: 2304
Lоcаtion: Гулькевичи
Age: 44
Name: Александр
Самое прикольное то, шо живых ссылок нема нихде... :dash:

_________________
Thrash no trash!!!


Top
 Profile E-mail  
 
 
PostPosted: 02 Jul 2016 
Зарегился вот...
User avatar
Joined: 28 Jun 2010
Posts: 4
Lоcаtion: Казань
Name: Руслан
А нельзя ли перезалить этот альбомец? Хоть куда нибудь?


Top
 Profile E-mail  
 
 
PostPosted: 02 Jul 2016 
Прокъмитолист
User avatar
Joined: 12 Aug 2007
Posts: 6605
Lоcаtion: Санктъ-Петербуркъ
Age: 51
Name: Олекъ
перезалито: YaDisk

_________________
прокъметол - это музыко, от которово есть прок (ы)


Top
 Profile  
 
 
PostPosted: 02 Jul 2016 
Персональный статус
User avatar
Joined: 04 Mar 2012
Posts: 239
Lоcаtion: Саратов
Name: Василий
:thanx:


Top
 Profile E-mail  
 
 
PostPosted: 04 Jul 2016 
консэрваторъ
User avatar
Joined: 11 Aug 2007
Posts: 17222
Lоcаtion: Псков
Age: 45
Name: Сергей
graf1973, что у тебя с авкой?..

_________________
THRASH 'EM ALL


Top
 Profile E-mail  
 
 
PostPosted: 05 Jul 2016 
Хиппей (support team)
User avatar
Joined: 30 Jul 2007
Posts: 114411
Lоcаtion: Киев (Kyiv, UA)
Age: 46
Name: Andrey
:thanx:

mirror: iFolder l Narod M-Cloud

_________________


Top
 Profile E-mail  
 
 
PostPosted: 05 Jul 2016 
Хиппей (support team)
User avatar
Joined: 30 Jul 2007
Posts: 114411
Lоcаtion: Киев (Kyiv, UA)
Age: 46
Name: Andrey
Мже... Фигней альтернативной оказался альбом :(

_________________


Top
 Profile E-mail  
 
Display posts from previous:  Sort by  
Post new topic Reply to topic  [ 14 posts ] 

All times are UTC + 3 hours


Who is online

Users browsing this forum: No registered users and 1 guest


You cannot post new topics in this forum
You cannot reply to topics in this forum
You cannot edit your posts in this forum
You cannot delete your posts in this forum
You cannot post attachments in this forum

Search for:
Яндекс.Метрика
Powered by phpBB © 2000, 2002, 2005, 2007 phpBB Group