\m/ 80's metal \m/

Информационно-аналитический форум "80 см пыли" (In Search We Trust) "У нас никто никуда не спешит"
Me For You - http://me-4u.com
It is currently 25 Jun 2019

All times are UTC + 3 hours

Spoiler
Chat - temporary registration for foreign users (please leave your application here)







Post new topic Reply to topic  [ 5 posts ] 
Author Message
 
PostPosted: 20 Apr 2010 
ыыыы
User avatar
Joined: 17 May 2009
Posts: 952
Lоcаtion: Пушкино, МО
Age: 40
Name: Дмитрий
Image


Жанр: Hard Rock/Glam Rock
Происхождение исполнителя: США
Год издания: 1994
Год издания данного носителя: 1994
Страна-производитель носителя: Япония
Аудио кодек: FLAC
Тип рипа: image+.cue
Битрейт аудио: lossless
Продолжительность: 57:25
Рип: Собственный
Лейбл: POLYGRAM/NIPPON PHONOGRAM
Каталоговый номер: PHCR-1254
Матрица: PHCR-1254- 1M 21 V IFPI L233 (JVC)

Треклист:
01. Face Down 04:11
02. No Crime 02:35
03. Long Time Dead 03:22
04. Kill That Girl 03:12
05. Fade Away 04:11
06. Tarantula 0:57
07. Nothing Better To Do 02:52
08. Chasing The Dragon 04:50
09. Killing Machine 03:29
10. I'd Love To Change The World 03:39
11. Who's In Control (Let 'Em Roll) 04:02
12. I'm The One 02:28
13. Why Ain't I Bleeding 04:33
14. Kiss Of Death 05:54
15. Death In America 03:41
16. Empire Down 03:29

"Куй"
REM GENRE "Hard Rock"
REM DATE 1994
REM DISCID A90D7510
REM COMMENT "ExactAudioCopy v0.99pb5"
PERFORMER "L.A. Guns"
TITLE "Vicious Circle [PHCR-1254]"
FILE "L.A. Guns - Vicious Circle [PHCR-1254].flac" WAVE
TRACK 01 AUDIO
TITLE "Face Down"
PERFORMER "L.A. Guns"
INDEX 00 00:00:00
INDEX 01 00:00:37
TRACK 02 AUDIO
TITLE "No Crime"
PERFORMER "L.A. Guns"
INDEX 01 04:11:72
TRACK 03 AUDIO
TITLE "Long Time Dead"
PERFORMER "L.A. Guns"
INDEX 00 06:46:66
INDEX 01 06:47:02
TRACK 04 AUDIO
TITLE "Kill That Girl"
PERFORMER "L.A. Guns"
INDEX 01 10:08:72
TRACK 05 AUDIO
TITLE "Fade Away"
PERFORMER "L.A. Guns"
INDEX 01 13:20:60
TRACK 06 AUDIO
TITLE "Tarantula"
PERFORMER "L.A. Guns"
INDEX 01 17:31:70
TRACK 07 AUDIO
TITLE "Nothing Better To Do"
PERFORMER "L.A. Guns"
INDEX 00 18:28:18
INDEX 01 18:28:65
TRACK 08 AUDIO
TITLE "Chasing The Dragon"
PERFORMER "L.A. Guns"
INDEX 01 21:20:37
TRACK 09 AUDIO
TITLE "Killing Machine"
PERFORMER "L.A. Guns"
INDEX 01 26:10:05
TRACK 10 AUDIO
TITLE "I'd Love To Change The World"
PERFORMER "L.A. Guns"
INDEX 00 29:37:61
INDEX 01 29:39:12
TRACK 11 AUDIO
TITLE "Who's In Controll (Let 'Em Roll)"
PERFORMER "L.A. Guns"
INDEX 00 33:18:21
INDEX 01 33:18:30
TRACK 12 AUDIO
TITLE "I'm The One"
PERFORMER "L.A. Guns"
INDEX 00 37:20:36
INDEX 01 37:20:42
TRACK 13 AUDIO
TITLE "Why Ain't I Bleeding"
PERFORMER "L.A. Guns"
INDEX 00 39:46:68
INDEX 01 39:48:10
TRACK 14 AUDIO
TITLE "Kiss Of Death"
PERFORMER "L.A. Guns"
INDEX 00 44:20:71
INDEX 01 44:21:22
TRACK 15 AUDIO
TITLE "Death In America"
PERFORMER "L.A. Guns"
INDEX 00 50:14:61
INDEX 01 50:15:32
TRACK 16 AUDIO
TITLE "Empire Down"
PERFORMER "L.A. Guns"
INDEX 00 53:54:31
INDEX 01 53:56:02


"Лог"
Exact Audio Copy V0.99 prebeta 5 from 4. May 2009

EAC extraction logfile from 20. April 2010, 11:48

L.A. Guns / Vicious Circle [PHCR-1254]

Used drive : Optiarc DVD RW AD-7200A Adapter: 0 ID: 0

Read mode : Secure
Utilize accurate stream : Yes
Defeat audio cache : Yes
Make use of C2 pointers : No

Read offset correction : 48
Overread into Lead-In and Lead-Out : No
Fill up missing offset samples with silence : Yes
Delete leading and trailing silent blocks : No
Null samples used in CRC calculations : Yes
Used interface : Native Win32 interface for Win NT & 2000

Used output format : User Defined Encoder
Selected bitrate : 128 kBit/s
Quality : High
Add ID3 tag : No
Command line compressor : C:\Program Files\Exact Audio Copy\Flac\flac.exe
Additional command line options : -8 -V -T "artist=%a" -T "title=%t" -T "album=%g" -T "date=%y" -T "tracknumber=%n" -T "genre=%m" -T "comment=EAC 0.9beta4 / FLAC 1.1.0 q6" %s


TOC of the extracted CD

Track | Start | Length | Start sector | End sector
---------------------------------------------------------
1 | 0:00.37 | 4:11.35 | 37 | 18896
2 | 4:11.72 | 2:35.05 | 18897 | 30526
3 | 6:47.02 | 3:21.70 | 30527 | 45671
4 | 10:08.72 | 3:11.63 | 45672 | 60059
5 | 13:20.60 | 4:11.10 | 60060 | 78894
6 | 17:31.70 | 0:56.70 | 78895 | 83164
7 | 18:28.65 | 2:51.47 | 83165 | 96036
8 | 21:20.37 | 4:49.43 | 96037 | 117754
9 | 26:10.05 | 3:29.07 | 117755 | 133436
10 | 29:39.12 | 3:39.18 | 133437 | 149879
11 | 33:18.30 | 4:02.12 | 149880 | 168041
12 | 37:20.42 | 2:27.43 | 168042 | 179109
13 | 39:48.10 | 4:33.12 | 179110 | 199596
14 | 44:21.22 | 5:54.10 | 199597 | 226156
15 | 50:15.32 | 3:40.45 | 226157 | 242701
16 | 53:56.02 | 3:29.03 | 242702 | 258379


Range status and errors

Selected range

Filename Y:\Музыка\L.A. Guns\1994 Vicious Circle\L.A. Guns - Vicious Circle [PHCR-1254].wav

Peak level 99.6 %
Range quality 100.0 %
Copy CRC 59015842
Copy OK

No errors occurred

End of status report


Состав:
Phil Lewis: Lead vocals except on "Tarantula" and "Nothing Better To Do"
Tracii Guns: Lead guitar
Mick Cripps: Rhythm guitar, Keyboards, Backing vocals
Kelly Nickels: Bass, Lead vocals on "Nothing Better To Do"
Drums by MC Bones, Dorian Grey, Myron Grombacher, Steve Riley, and Nickey "Beat" Alexander
Backing vocals by Steve Dior and Jim Wirt from Filthy Lucre

Народ

_________________
Витасу до Даймонда как Алсу до Руссоса | При переразмещении - спрашивать разрешение!!


Top
 Profile  
 
 
PostPosted: 20 Apr 2010 
труъ антисионист
User avatar
Joined: 01 Aug 2007
Posts: 4544
Lоcаtion: Откуда и большинство из нас
Age: 38
Name: Дядя Вова
Мерси! :thanx:

_________________
Image
Image


Top
 Profile  
 
 
PostPosted: 21 Apr 2010 
дядя Миша
User avatar
Joined: 17 Oct 2008
Posts: 3134
Lоcаtion: USSR
Age: 56
Name: Khy
:true: спасибо!


Top
 Profile  
 
 
PostPosted: 21 Apr 2010 
ыыыы
User avatar
Joined: 17 May 2009
Posts: 952
Lоcаtion: Пушкино, МО
Age: 40
Name: Дмитрий
VARVAAR
На здоровье!!!!

_________________
Витасу до Даймонда как Алсу до Руссоса | При переразмещении - спрашивать разрешение!!


Top
 Profile  
 
 
PostPosted: 21 Apr 2010 
дядя Миша
User avatar
Joined: 17 Oct 2008
Posts: 3134
Lоcаtion: USSR
Age: 56
Name: Khy
Давно не слушал. Первая песенка в духе Anthrax. Вот тебе и Glam.
Прослушал целиком. Ой какой хороший альбом! Жёсткий , и в тоже время мелодичный и шебутной!


Top
 Profile  
 
Display posts from previous:  Sort by  
Post new topic Reply to topic  [ 5 posts ] 

All times are UTC + 3 hours


Who is online

Users browsing this forum: No registered users and 1 guest


You cannot post new topics in this forum
You cannot reply to topics in this forum
You cannot edit your posts in this forum
You cannot delete your posts in this forum
You cannot post attachments in this forum

Search for:
Яндекс.Метрика
Powered by phpBB © 2000, 2002, 2005, 2007 phpBB Group