\m/ 80's metal \m/

Информационно-аналитический форум "80 см пыли" (In Search We Trust) "У нас никто никуда не спешит"
Me For You - http://me-4u.com
It is currently 25 Aug 2019

All times are UTC + 3 hours

Spoiler
Chat - temporary registration for foreign users (please leave your application here)







Post new topic Reply to topic  [ 11 posts ] 
Author Message
 
PostPosted: 20 Apr 2010 
ыыыы
User avatar
Joined: 17 May 2009
Posts: 952
Lоcаtion: Пушкино, МО
Age: 40
Name: Дмитрий
Image


Жанр: Hard Rock/Glam Rock
Происхождение исполнителя: США
Год издания: 1988
Год издания данного носителя: 1988
Страна-производитель носителя: Япония
Аудио кодек: FLAC
Тип рипа: image+.cue
Битрейт аудио: lossless
Продолжительность: 36:50
Рип: Собственный
Лейбл: VERTIGO/NIPPON PHONOGRAM
Каталоговый номер: 32PD-448
Матрица: 32PD448 C8301I (SANYO)

Треклист:
1. No Mercy 02:46
2. Sex Action 03:40
3. One More Reason 03:05
4. Electric Gypsy 03:24
5. Nothing To Lose 04:13
6. Bitch Is Back 02:51
7. Cry No More 01:18
8. One Way Ticket 04:18
9. Hollywood Tease (Girl Cover) 02:51
10. Shoot For Thrills (Sweet Pain Cover) 04:27
11. Down In The City 03:57

"Куй"
REM GENRE "Hard Rock"
REM DATE 1988
REM DISCID 9A08A10B
REM COMMENT "ExactAudioCopy v0.99pb5"
PERFORMER "L.A. Guns"
TITLE "L.A. Guns [32PD-448]"
FILE "L.A. Guns - L.A. Guns [32PD-448].flac" WAVE
TRACK 01 AUDIO
TITLE "No Mercy"
PERFORMER "L.A. Guns"
INDEX 01 00:00:00
TRACK 02 AUDIO
TITLE "Sex Action"
PERFORMER "L.A. Guns"
INDEX 01 02:46:07
TRACK 03 AUDIO
TITLE "One More Reason"
PERFORMER "L.A. Guns"
INDEX 01 06:25:52
TRACK 04 AUDIO
TITLE "Electric Gypsy"
PERFORMER "L.A. Guns"
INDEX 01 09:31:07
TRACK 05 AUDIO
TITLE "Nothing To Lose"
PERFORMER "L.A. Guns"
INDEX 01 12:54:52
TRACK 06 AUDIO
TITLE "Bitch Is Back"
PERFORMER "L.A. Guns"
INDEX 00 17:06:67
INDEX 01 17:07:27
TRACK 07 AUDIO
TITLE "Cry No More"
PERFORMER "L.A. Guns"
INDEX 01 19:58:45
TRACK 08 AUDIO
TITLE "One Way Ticket"
PERFORMER "L.A. Guns"
INDEX 01 21:16:42
TRACK 09 AUDIO
TITLE "Hollywood Tease"
PERFORMER "L.A. Guns"
INDEX 01 25:34:35
TRACK 10 AUDIO
TITLE "Shoot For Thrills"
PERFORMER "L.A. Guns"
INDEX 01 28:25:02
TRACK 11 AUDIO
TITLE "Down In The City"
PERFORMER "L.A. Guns"
INDEX 01 32:52:30


"Лог"
Exact Audio Copy V0.99 prebeta 5 from 4. May 2009

EAC extraction logfile from 20. April 2010, 10:26

L.A. Guns / L.A. Guns [32PD-448]

Used drive : Optiarc DVD RW AD-7200A Adapter: 0 ID: 0

Read mode : Secure
Utilize accurate stream : Yes
Defeat audio cache : Yes
Make use of C2 pointers : No

Read offset correction : 48
Overread into Lead-In and Lead-Out : No
Fill up missing offset samples with silence : Yes
Delete leading and trailing silent blocks : No
Null samples used in CRC calculations : Yes
Used interface : Native Win32 interface for Win NT & 2000

Used output format : User Defined Encoder
Selected bitrate : 128 kBit/s
Quality : High
Add ID3 tag : No
Command line compressor : C:\Program Files\Exact Audio Copy\Flac\flac.exe
Additional command line options : -8 -V -T "artist=%a" -T "title=%t" -T "album=%g" -T "date=%y" -T "tracknumber=%n" -T "genre=%m" -T "comment=EAC 0.9beta4 / FLAC 1.1.0 q6" %s


TOC of the extracted CD

Track | Start | Length | Start sector | End sector
---------------------------------------------------------
1 | 0:00.00 | 2:46.07 | 0 | 12456
2 | 2:46.07 | 3:39.45 | 12457 | 28926
3 | 6:25.52 | 3:05.30 | 28927 | 42831
4 | 9:31.07 | 3:23.45 | 42832 | 58101
5 | 12:54.52 | 4:12.50 | 58102 | 77051
6 | 17:07.27 | 2:51.18 | 77052 | 89894
7 | 19:58.45 | 1:17.72 | 89895 | 95741
8 | 21:16.42 | 4:17.68 | 95742 | 115084
9 | 25:34.35 | 2:50.42 | 115085 | 127876
10 | 28:25.02 | 4:27.28 | 127877 | 147929
11 | 32:52.30 | 3:57.37 | 147930 | 165741


Range status and errors

Selected range

Filename Y:\Музыка\L.A. Guns\1988 L.A. Guns\L.A. Guns - L.A. Guns [32PD-448].wav

Peak level 100.0 %
Range quality 99.9 %
Copy CRC DEB34AE7
Copy OK

No errors occurred

End of status report


Состав:
Phil Lewis: Lead Vocals
Tracii Guns: lead guitar
Mick Cripps: rhythm guitar
Kelly Nickels: Bass
Nickey "Beat" Alexander: Drums

Народ

_________________
Витасу до Даймонда как Алсу до Руссоса | При переразмещении - спрашивать разрешение!!


Top
 Profile  
 
 
PostPosted: 26 Oct 2011 
Зарегился вот...
Joined: 12 Oct 2011
Posts: 7
Lоcаtion: Poland
Name: Marcin
reup please!


Top
 Profile E-mail  
 
 
PostPosted: 26 Oct 2011 
ыыыы
User avatar
Joined: 17 May 2009
Posts: 952
Lоcаtion: Пушкино, МО
Age: 40
Name: Дмитрий
:esel:

_________________
Витасу до Даймонда как Алсу до Руссоса | При переразмещении - спрашивать разрешение!!


Top
 Profile  
 
 
PostPosted: 26 Oct 2011 
дядя Миша
User avatar
Joined: 17 Oct 2008
Posts: 3170
Lоcаtion: USSR
Age: 56
Name: Khy
Димон! Салют!Ты куда пропал?


Top
 Profile  
 
 
PostPosted: 26 Oct 2011 
Прокъмитолист
User avatar
Joined: 12 Aug 2007
Posts: 6593
Lоcаtion: Санктъ-Петербуркъ
Age: 51
Name: Олекъ
о! привет, Дим! :true:

_________________
прокъметол - это музыко, от которово есть прок (ы)


Top
 Profile  
 
 
PostPosted: 27 Oct 2011 
Хиппей (support team)
User avatar
Joined: 30 Jul 2007
Posts: 114093
Lоcаtion: Киев (Kyiv, UA)
Age: 46
Name: Andrey
iezuit wrote:
:esel:

:ura: :hi:

_________________


Top
 Profile E-mail  
 
 
PostPosted: 27 Oct 2011 
Хиппей (support team)
User avatar
Joined: 30 Jul 2007
Posts: 114093
Lоcаtion: Киев (Kyiv, UA)
Age: 46
Name: Andrey
marmistrz wrote:
reup please!


http://rutracker.org/forum/viewtopic.php?t=2912146

_________________


Top
 Profile E-mail  
 
 
PostPosted: 27 Oct 2011 
Motörheadache
User avatar
Joined: 04 Feb 2010
Posts: 1294
Lоcаtion: Впереди- горы,позади-степи
Age: 46
Name: Александр
Дмитрий нарисовалсо !!! :shok:

_________________
Eine Nation, Ein Land, Eine Schnaps!

Наш священный долг:защищать Родину,и соблюдать правила личной гигиены....!


Top
 Profile E-mail  
 
 
PostPosted: 27 Oct 2011 
Хиппей (support team)
User avatar
Joined: 30 Jul 2007
Posts: 114093
Lоcаtion: Киев (Kyiv, UA)
Age: 46
Name: Andrey
Не, это всего-лишь был(о) приведение... :zo:

_________________


Top
 Profile E-mail  
 
 
PostPosted: 27 Oct 2011 
Motörheadache
User avatar
Joined: 04 Feb 2010
Posts: 1294
Lоcаtion: Впереди- горы,позади-степи
Age: 46
Name: Александр
Да ...точно.....
Иезуитский глюк.... :vic:

_________________
Eine Nation, Ein Land, Eine Schnaps!

Наш священный долг:защищать Родину,и соблюдать правила личной гигиены....!


Top
 Profile E-mail  
 
 
PostPosted: 27 Oct 2011 
Хиппей (support team)
User avatar
Joined: 30 Jul 2007
Posts: 114093
Lоcаtion: Киев (Kyiv, UA)
Age: 46
Name: Andrey
mirror: MultiUp l Narod

_________________


Top
 Profile E-mail  
 
Display posts from previous:  Sort by  
Post new topic Reply to topic  [ 11 posts ] 

All times are UTC + 3 hours


Who is online

Users browsing this forum: No registered users and 1 guest


You cannot post new topics in this forum
You cannot reply to topics in this forum
You cannot edit your posts in this forum
You cannot delete your posts in this forum
You cannot post attachments in this forum

Search for:
Яндекс.Метрика
cron
Powered by phpBB © 2000, 2002, 2005, 2007 phpBB Group