\m/ 80's metal \m/

Информационно-аналитический форум "80 см пыли" (In Search We Trust) "У нас никто никуда не спешит"
Me For You - http://me-4u.com
It is currently 20 Apr 2019

All times are UTC + 3 hours

Spoiler
Chat - temporary registration for foreign users (please leave your application here)







Post new topic Reply to topic  [ 5 posts ] 
Author Message
 
PostPosted: 05 Apr 2010 
ыыыы
User avatar
Joined: 17 May 2009
Posts: 952
Lоcаtion: Пушкино, МО
Age: 40
Name: Дмитрий
Image


Жанр: Heavy Metal
Происхождение исполнителя: США
Год издания: 1987
Год издания данного носителя: 1987
Страна-производитель носителя: Япония
Тип рипа: wav
Битрейт аудио: lossless
Продолжительность: 41:58
Рип: Собственный
Лейбл: METAL BLADE-ENIGMA/ALFA
Каталоговый номер: 32XB-186
Матрица: 32XB-186 1A1 TO (TOSHIBA)

Треклист:
1. Me Against The World 05:04
2. Shock 04:36
3. Outcast 04:22
4. Den Of Thieves 03:48
5. Visual Lies 04:04
6. Eyes Of A Stranger 04:28
7. Lord Of The Flies 05:42
8. Voyeur (I'm Watching You) 04:32
9. Visions 05:23

"Куй"
REM GENRE Metal
REM DATE 1987
PERFORMER "Lizzy Borden"
TITLE "Visual Lies [32XB-186]"
FILE "Lizzy Borden - Visual Lies [32XB-186].wav" WAVE
TRACK 01 AUDIO
TITLE "Me Against The World"
INDEX 01 00:00:00
TRACK 02 AUDIO
TITLE "Shock"
INDEX 01 05:04:02
TRACK 03 AUDIO
TITLE "Outcast"
INDEX 01 09:39:47
TRACK 04 AUDIO
TITLE "Den Of Thieves"
INDEX 01 14:01:17
TRACK 05 AUDIO
TITLE "Visual Lies"
INDEX 01 17:49:15
TRACK 06 AUDIO
TITLE "Eyes Of A Stranger"
INDEX 01 21:53:15
TRACK 07 AUDIO
TITLE "Lord Of The Flies"
INDEX 01 26:20:72
TRACK 08 AUDIO
TITLE "Voyeur (I'm Watching You)"
INDEX 01 32:02:65
TRACK 09 AUDIO
TITLE "Visions"
INDEX 01 36:35:00


Состав:
Lizzy Borden: Vocals
Joey Scott: Drums
Michael Davis: Bass
Gene Allen: Guitars
Joe Holmes: Guitars

Megaupload

#######
Рип сделан в foobar2000

_________________
Витасу до Даймонда как Алсу до Руссоса | При переразмещении - спрашивать разрешение!!


Top
 Profile  
 
 
PostPosted: 05 Apr 2010 
HAMMER
User avatar
Joined: 16 May 2009
Posts: 5477
Lоcаtion: Тверь
Age: 46
Name: Александр
:thanx:


Top
 Profile E-mail  
 
 
PostPosted: 05 Apr 2010 
А может смените мне статус?..
Joined: 03 Jul 2009
Posts: 859
Lоcаtion: Serbia
Name: Laki
Thanks very much !!!! :true:


Top
 Profile E-mail  
 
 
PostPosted: 05 Apr 2010 
Анатолий
User avatar
Joined: 18 Oct 2008
Posts: 3409
Lоcаtion: Армавир
Age: 41
Name: Анатолий
iezuit

И снова огромное спасибо! :thanx:


Top
 Profile E-mail  
 
 
PostPosted: 05 Apr 2010 
metallpaparazzy
User avatar
Joined: 20 Dec 2009
Posts: 674
Lоcаtion: Днепропетровск
Age: 44
Name: Геннадий
как по мне, лучший Лиззи! :true: имею этот и первые 2 в переиздании 2002 г. на Метал Блэйд. с бонусами. так шо, если кому надо сравнить, могу подкинуть :oops:


Top
 Profile E-mail  
 
Display posts from previous:  Sort by  
Post new topic Reply to topic  [ 5 posts ] 

All times are UTC + 3 hours


Who is online

Users browsing this forum: No registered users and 1 guest


You cannot post new topics in this forum
You cannot reply to topics in this forum
You cannot edit your posts in this forum
You cannot delete your posts in this forum
You cannot post attachments in this forum

Search for:
Яндекс.Метрика
Powered by phpBB © 2000, 2002, 2005, 2007 phpBB Group