\m/ 80's metal \m/

Информационно-аналитический форум "80 см пыли" (In Search We Trust) "У нас никто никуда не спешит"
Me For You - http://me-4u.com
It is currently 25 Apr 2019

All times are UTC + 3 hours

Spoiler
Chat - temporary registration for foreign users (please leave your application here)







Post new topic Reply to topic  [ 9 posts ] 
Author Message
 
PostPosted: 04 Apr 2010 
ыыыы
User avatar
Joined: 17 May 2009
Posts: 952
Lоcаtion: Пушкино, МО
Age: 40
Name: Дмитрий
Image


Жанр: Heavy Metal
Происхождение исполнителя: США
Год издания: 1989
Год издания данного носителя: 1989
Страна-производитель носителя: Япония
Аудио кодек: FLAC
Тип рипа: image+.cue
Битрейт аудио: lossless
Продолжительность: 57:28
Рип: Собственный
Лейбл: METAL BLADE/PONY CANYON
Каталоговый номер: D22Y0346
Матрица: D22Y-0346 2 (SONY)

Треклист:
1. Master of Disguise 07:25
2. One False Move 02:50
3. Love is a Crime 05:28
4. Sins of the Flesh 04:35
5. Phantoms 06:24
6. Never Too Young 04:53
7. Be One of Us 04:07
8. Psychodrama 04:43
9. Waiting in the Wings 05:36
10. Roll Over and Play Dead 04:09
11. Under the Rose 02:46
12. We Got the Power 04:32

"Куй"
REM GENRE "Heavy Metal"
REM DATE 1989
REM DISCID 990D770C
REM COMMENT "ExactAudioCopy v0.99pb5"
PERFORMER "Lizzy Borden"
TITLE "Master Of Disguise [D22Y0346]"
FILE "Lizzy Borden - Master Of Disguise [D22Y0346].flac" WAVE
TRACK 01 AUDIO
TITLE "Master Of Disguise"
PERFORMER "Lizzy Borden"
INDEX 01 00:00:00
TRACK 02 AUDIO
TITLE "One False Move"
PERFORMER "Lizzy Borden"
INDEX 00 07:25:25
INDEX 01 07:25:27
TRACK 03 AUDIO
TITLE "Love Is A Crime"
PERFORMER "Lizzy Borden"
INDEX 00 10:15:26
INDEX 01 10:15:30
TRACK 04 AUDIO
TITLE "Sins Of The Flesh"
PERFORMER "Lizzy Borden"
INDEX 00 15:43:15
INDEX 01 15:43:17
TRACK 05 AUDIO
TITLE "Phantoms"
PERFORMER "Lizzy Borden"
INDEX 00 20:16:30
INDEX 01 20:18:50
TRACK 06 AUDIO
TITLE "Never Too Young"
PERFORMER "Lizzy Borden"
INDEX 00 26:42:22
INDEX 01 26:42:27
TRACK 07 AUDIO
TITLE "Be One Of Us"
PERFORMER "Lizzy Borden"
INDEX 00 31:33:15
INDEX 01 31:34:70
TRACK 08 AUDIO
TITLE "Psychodrama"
PERFORMER "Lizzy Borden"
INDEX 00 35:40:52
INDEX 01 35:41:55
TRACK 09 AUDIO
TITLE "Waiting In The Wings"
PERFORMER "Lizzy Borden"
INDEX 00 40:24:35
INDEX 01 40:24:67
TRACK 10 AUDIO
TITLE "Roll Over And Play Dead"
PERFORMER "Lizzy Borden"
INDEX 00 46:00:67
INDEX 01 46:00:70
TRACK 11 AUDIO
TITLE "Under The Rose"
PERFORMER "Lizzy Borden"
INDEX 00 50:08:02
INDEX 01 50:09:47
TRACK 12 AUDIO
TITLE "We Got The Power"
PERFORMER "Lizzy Borden"
INDEX 00 52:55:00
INDEX 01 52:55:52


"Лог"
Exact Audio Copy V0.99 prebeta 5 from 4. May 2009

EAC extraction logfile from 4. April 2010, 19:05

Lizzy Borden / Master Of Disguise [D22Y0346]

Used drive : Optiarc DVD RW AD-7200A Adapter: 0 ID: 0

Read mode : Secure
Utilize accurate stream : Yes
Defeat audio cache : Yes
Make use of C2 pointers : No

Read offset correction : 48
Overread into Lead-In and Lead-Out : No
Fill up missing offset samples with silence : Yes
Delete leading and trailing silent blocks : No
Null samples used in CRC calculations : Yes
Used interface : Native Win32 interface for Win NT & 2000

Used output format : User Defined Encoder
Selected bitrate : 128 kBit/s
Quality : High
Add ID3 tag : No
Command line compressor : C:\Program Files\Exact Audio Copy\Flac\flac.exe
Additional command line options : -8 -V -T "artist=%a" -T "title=%t" -T "album=%g" -T "date=%y" -T "tracknumber=%n" -T "genre=%m" -T "comment=EAC 0.9beta4 / FLAC 1.1.0 q6" %s


TOC of the extracted CD

Track | Start | Length | Start sector | End sector
---------------------------------------------------------
1 | 0:00.00 | 7:25.27 | 0 | 33401
2 | 7:25.27 | 2:50.03 | 33402 | 46154
3 | 10:15.30 | 5:27.62 | 46155 | 70741
4 | 15:43.17 | 4:35.33 | 70742 | 91399
5 | 20:18.50 | 6:23.52 | 91400 | 120176
6 | 26:42.27 | 4:52.43 | 120177 | 142119
7 | 31:34.70 | 4:06.60 | 142120 | 160629
8 | 35:41.55 | 4:43.12 | 160630 | 181866
9 | 40:24.67 | 5:36.03 | 181867 | 207069
10 | 46:00.70 | 4:08.52 | 207070 | 225721
11 | 50:09.47 | 2:46.05 | 225722 | 238176
12 | 52:55.52 | 4:31.70 | 238177 | 258571


Range status and errors

Selected range

Filename Y:\Музыка\Lizzy Borden\1989 Master Of Disguise\Lizzy Borden - Master Of Disguise [D22Y0346].wav

Peak level 100.0 %
Range quality 100.0 %
Copy CRC 868AA5DC
Copy OK

No errors occurred

End of status report


Состав:
Vocals: Lizzy Borden
Guitars: David Michael Philips
Guitars: Ronnie Jude
Bass: Mychal Davis
Drums: Joey Scott
Keyboard: William Kidd

Народ

_________________
Витасу до Даймонда как Алсу до Руссоса | При переразмещении - спрашивать разрешение!!


Top
 Profile  
 
 
PostPosted: 05 Apr 2010 
А может смените мне статус?..
Joined: 03 Jul 2009
Posts: 861
Lоcаtion: Serbia
Name: Laki
Thank you for this version, if you have others Jap. cd's, that would be awesome Cheers !!!!!


Top
 Profile E-mail  
 
 
PostPosted: 05 Apr 2010 
ыыыы
User avatar
Joined: 17 May 2009
Posts: 952
Lоcаtion: Пушкино, МО
Age: 40
Name: Дмитрий
Не повезло (( Есть 87 год, а диск ЕАКом не копируется((( могу сделать wav- образ фубаром

_________________
Витасу до Даймонда как Алсу до Руссоса | При переразмещении - спрашивать разрешение!!


Top
 Profile  
 
 
PostPosted: 05 Apr 2010 
А может смените мне статус?..
Joined: 03 Jul 2009
Posts: 861
Lоcаtion: Serbia
Name: Laki
That would be great Thanks !!!!!


Top
 Profile E-mail  
 
 
PostPosted: 05 Apr 2010 
Анатолий
User avatar
Joined: 18 Oct 2008
Posts: 3413
Lоcаtion: Армавир
Age: 41
Name: Анатолий
iezuit

Спасибо большое! :thanx:

Этого не было.


Top
 Profile E-mail  
 
 
PostPosted: 05 Apr 2010 
Хиппей (support team)
User avatar
Joined: 30 Jul 2007
Posts: 111854
Lоcаtion: Киев (Kyiv, UA)
Age: 45
Name: Andrey
iezuit wrote:
Есть 87 год, а диск ЕАКом не копируется(((

Ога... Дим, понятно теперь.





Ээ, Олег, а чего вдруг так бывает? :vic:

_________________


Top
 Profile E-mail  
 
 
PostPosted: 05 Apr 2010 
ыыыы
User avatar
Joined: 17 May 2009
Posts: 952
Lоcаtion: Пушкино, МО
Age: 40
Name: Дмитрий
Scatterbrain

у меня 2 таких диска- Моторы 86 и Lizzy 87. Ну Lizzy 87 то понятно- 3 продольные царапины ))) читаться читается, а копироваться- как говорится- "Куй" :crazy: :nunu:

_________________
Витасу до Даймонда как Алсу до Руссоса | При переразмещении - спрашивать разрешение!!


Top
 Profile  
 
 
PostPosted: 05 Apr 2010 
Прокъмитолист
User avatar
Joined: 12 Aug 2007
Posts: 6545
Lоcаtion: Санктъ-Петербуркъ
Age: 51
Name: Олекъ
бывает такое иногда со старыми дисками. даже если на вид и на слух все нормально - а читаться ЕАКом без ошибок не хочет.

как вариант, Дим: можно попробовать сграбить в режиме paranoid или в крайнем случае burst :umnik:

_________________
прокъметол - это музыко, от которово есть прок (ы)


Top
 Profile  
 
 
PostPosted: 05 Apr 2010 
ыыыы
User avatar
Joined: 17 May 2009
Posts: 952
Lоcаtion: Пушкино, МО
Age: 40
Name: Дмитрий
spiralarch
да я не собссно не страдаю- звук идёт, ухо радуется ))

_________________
Витасу до Даймонда как Алсу до Руссоса | При переразмещении - спрашивать разрешение!!


Top
 Profile  
 
Display posts from previous:  Sort by  
Post new topic Reply to topic  [ 9 posts ] 

All times are UTC + 3 hours


Who is online

Users browsing this forum: No registered users and 2 guests


You cannot post new topics in this forum
You cannot reply to topics in this forum
You cannot edit your posts in this forum
You cannot delete your posts in this forum
You cannot post attachments in this forum

Search for:
Яндекс.Метрика
Powered by phpBB © 2000, 2002, 2005, 2007 phpBB Group