\m/ 80's metal \m/

Информационно-аналитический форум "80 см пыли" (In Search We Trust) "У нас никто никуда не спешит"
Me For You - http://me-4u.com
It is currently 21 Sep 2019

All times are UTC + 3 hours

Spoiler
Chat - temporary registration for foreign users (please leave your application here)







Post new topic Reply to topic  [ 13 posts ] 
Author Message
 
PostPosted: 29 Mar 2010 
ыыыы
User avatar
Joined: 17 May 2009
Posts: 952
Lоcаtion: Пушкино, МО
Age: 40
Name: Дмитрий
Image


Жанр: Heavy Metal
Происхождение исполнителя: США
Год издания: 1989
Год издания данного носителя: 1989
Страна-производитель носителя: Япония
Аудио кодек: FLAC
Тип рипа: image+.cue
Битрейт аудио: lossless
Продолжительность: 44:05
Рип: Собственный
Лейбл: ISLAND/POLYSTAR
Каталоговый номер: P30D-10006
Матрица: P30D-10006-A1E 11 (JVC)

Треклист:
1. Wicked Ways 06:03
2. Street Ready 03:06
3. Hideaway 03:56
4. Take a Chance 03:10
5. Black Knight 03:00
6. Thunder 03:47
7. The Way I Feel 04:54
8. Too Much 03:37
9. Lonely Road 03:44
10. Spirits In the Wind 05:06
11. Alone in the Night 3:41

"Куй"
REM GENRE "Heavy Metal"
REM DATE 1989
REM DISCID AD0A550B
REM COMMENT "ExactAudioCopy v0.99pb5"
PERFORMER "Leatherwolf"
TITLE "Street Ready [P30D-10006]"
FILE "Leatherwolf - Street Ready [P30D-10006].flac" WAVE
TRACK 01 AUDIO
TITLE "Wicked Ways"
PERFORMER "Leatherwolf"
INDEX 00 00:00:00
INDEX 01 00:00:37
TRACK 02 AUDIO
TITLE "Street Ready"
PERFORMER "Leatherwolf"
INDEX 01 06:03:60
TRACK 03 AUDIO
TITLE "Hideway"
PERFORMER "Leatherwolf"
INDEX 01 09:10:20
TRACK 04 AUDIO
TITLE "Take A Chance"
PERFORMER "Leatherwolf"
INDEX 00 13:06:51
INDEX 01 13:06:52
TRACK 05 AUDIO
TITLE "Black Knight"
PERFORMER "Leatherwolf"
INDEX 00 16:16:41
INDEX 01 16:16:42
TRACK 06 AUDIO
TITLE "Thunder"
PERFORMER "Leatherwolf"
INDEX 01 19:16:47
TRACK 07 AUDIO
TITLE "The Way I Feel"
PERFORMER "Leatherwolf"
INDEX 01 23:03:62
TRACK 08 AUDIO
TITLE "Too Much"
PERFORMER "Leatherwolf"
INDEX 00 27:57:24
INDEX 01 27:57:25
TRACK 09 AUDIO
TITLE "Lonely Road"
PERFORMER "Leatherwolf"
INDEX 00 31:34:38
INDEX 01 31:34:40
TRACK 10 AUDIO
TITLE "Spirits In The Wind"
PERFORMER "Leatherwolf"
INDEX 01 35:18:60
TRACK 11 AUDIO
TITLE "Alone In The Night"
PERFORMER "Leatherwolf"
INDEX 01 40:24:37


"Лог"
Exact Audio Copy V0.99 prebeta 5 from 4. May 2009

EAC extraction logfile from 29. March 2010, 14:50

Leatherwolf / Street Ready [P30D-10006]

Used drive : ASUS DRW-2014S1T Adapter: 1 ID: 1

Read mode : Secure
Utilize accurate stream : Yes
Defeat audio cache : Yes
Make use of C2 pointers : No

Read offset correction : 6
Overread into Lead-In and Lead-Out : No
Fill up missing offset samples with silence : Yes
Delete leading and trailing silent blocks : No
Null samples used in CRC calculations : Yes
Used interface : Installed external ASPI interface

Used output format : User Defined Encoder
Selected bitrate : 128 kBit/s
Quality : High
Add ID3 tag : No
Command line compressor : C:\Program Files\Exact Audio Copy\Flac\flac.exe
Additional command line options : -8 -V -T "artist=%a" -T "title=%t" -T "album=%g" -T "date=%y" -T "tracknumber=%n" -T "genre=%m" -T "comment=EAC 0.9beta4 / FLAC 1.1.0 q6" %s


TOC of the extracted CD

Track | Start | Length | Start sector | End sector
---------------------------------------------------------
1 | 0:00.37 | 6:03.23 | 37 | 27284
2 | 6:03.60 | 3:06.35 | 27285 | 41269
3 | 9:10.20 | 3:56.32 | 41270 | 59001
4 | 13:06.52 | 3:09.65 | 59002 | 73241
5 | 16:16.42 | 3:00.05 | 73242 | 86746
6 | 19:16.47 | 3:47.15 | 86747 | 103786
7 | 23:03.62 | 4:53.38 | 103787 | 125799
8 | 27:57.25 | 3:37.15 | 125800 | 142089
9 | 31:34.40 | 3:44.20 | 142090 | 158909
10 | 35:18.60 | 5:05.52 | 158910 | 181836
11 | 40:24.37 | 3:40.63 | 181837 | 198399


Range status and errors

Selected range

Filename Y:\Музыка\Leatherwolf\1989 Street Ready\Leatherwolf - Street Ready [P30D-10006].wav

Peak level 100.0 %
Range quality 100.0 %
Copy CRC 845B2158
Copy OK

No errors occurred

End of status report


Состав:
Mike Olivieri: Vocals & Guitar
Geoff Gayer: Guitar
Carey Howe: Guitar
Paul Carman: Bass
Dean Roberts: Drums

Megaupload
Фото

_________________
Витасу до Даймонда как Алсу до Руссоса | При переразмещении - спрашивать разрешение!!


Top
 Profile  
 
 
PostPosted: 29 Mar 2010 
Хиппей (support team)
User avatar
Joined: 30 Jul 2007
Posts: 114411
Lоcаtion: Киев (Kyiv, UA)
Age: 46
Name: Andrey
Охренеть спасибо нема слов благодарности! :true:

_________________


Top
 Profile E-mail  
 
 
PostPosted: 29 Mar 2010 
Работнечег
User avatar
Joined: 28 Aug 2007
Posts: 5995
Lоcаtion: г. Москва
Age: 30
Name: Дима
Спасибо! Мне недельки через 2 первопресс должен придти.Интересно будет сравнить по звуку :smile:


Top
 Profile E-mail  
 
 
PostPosted: 17 Jun 2010 
Персональный статус
Joined: 14 May 2010
Posts: 236
Age: 37
Name: Денис
а это разве не первопресс?


Top
 Profile  
 
 
PostPosted: 17 Jun 2010 
Работнечег
User avatar
Joined: 28 Aug 2007
Posts: 5995
Lоcаtion: г. Москва
Age: 30
Name: Дима
disabled wrote:
а это разве не первопресс?

ошибся я ) это первопресс токо японский.а у меня американский без бонус-трэка.


Top
 Profile E-mail  
 
 
PostPosted: 17 Jun 2010 
Анатолий
User avatar
Joined: 18 Oct 2008
Posts: 3531
Lоcаtion: Армавир
Age: 42
Name: Анатолий
О-о! О волке речь, а он навстречь!

Спасибо за японца! :thanx: Давно искал бонус! :true:


Top
 Profile E-mail  
 
 
PostPosted: 17 Jun 2010 
ыыыы
User avatar
Joined: 17 May 2009
Posts: 952
Lоcаtion: Пушкино, МО
Age: 40
Name: Дмитрий
а бонус-то ого-го!! )) и уже с 29 марта тут :true:

_________________
Витасу до Даймонда как Алсу до Руссоса | При переразмещении - спрашивать разрешение!!


Top
 Profile  
 
 
PostPosted: 17 Jun 2010 
Персональный статус
Joined: 14 May 2010
Posts: 236
Age: 37
Name: Денис
да.. полезно иногда всплывать в старых темах.. как новенькая теперь :dance:


Top
 Profile  
 
 
PostPosted: 17 Jun 2010 
Анатолий
User avatar
Joined: 18 Oct 2008
Posts: 3531
Lоcаtion: Армавир
Age: 42
Name: Анатолий
Что-то я как-то упустил из вида... :fingal: :oops:


Top
 Profile E-mail  
 
 
PostPosted: 17 Jun 2010 
ыыыы
User avatar
Joined: 17 May 2009
Posts: 952
Lоcаtion: Пушкино, МО
Age: 40
Name: Дмитрий
в моём профиле есть список всех моих постов :oops:

_________________
Витасу до Даймонда как Алсу до Руссоса | При переразмещении - спрашивать разрешение!!


Top
 Profile  
 
 
PostPosted: 17 Jun 2010 
Персональный статус
Joined: 14 May 2010
Posts: 236
Age: 37
Name: Денис
так только через него и ходим :nunu:


Top
 Profile  
 
 
PostPosted: 18 Jun 2010 
А может смените мне статус?..
User avatar
Joined: 24 Dec 2008
Posts: 647
Age: 45
Name: Дмитрий
Спасибо. :thanx:


Top
 Profile  
 
 
PostPosted: 19 Jun 2010 
metallpaparazzy
User avatar
Joined: 20 Dec 2009
Posts: 674
Lоcаtion: Днепропетровск
Age: 44
Name: Геннадий
о, и я заберу этого тамбовского товарища! :nunu:
:thanx: :true:


Top
 Profile E-mail  
 
Display posts from previous:  Sort by  
Post new topic Reply to topic  [ 13 posts ] 

All times are UTC + 3 hours


Who is online

Users browsing this forum: Google [Bot] and 1 guest


You cannot post new topics in this forum
You cannot reply to topics in this forum
You cannot edit your posts in this forum
You cannot delete your posts in this forum
You cannot post attachments in this forum

Search for:
Яндекс.Метрика
Powered by phpBB © 2000, 2002, 2005, 2007 phpBB Group