\m/ 80's metal \m/

Информационно-аналитический форум "80 см пыли" (In Search We Trust) "У нас никто никуда не спешит"
Me For You - http://me-4u.com
It is currently 24 Aug 2019

All times are UTC + 3 hours

Spoiler
Chat - temporary registration for foreign users (please leave your application here)







Post new topic Reply to topic  [ 13 posts ] 
Author Message
 
PostPosted: 17 Mar 2010 
Работнечег
User avatar
Joined: 28 Aug 2007
Posts: 5954
Lоcаtion: г. Москва
Age: 30
Name: Дима
Image

Band: Lust
Album: We'll Never Die
Label: Cult Metal Classics
Genre: Heavy Metal
Country: France
Format: Flac + Log + Cue/Covers
Size: 521 Mb/10 Mb

Line-Up:
Fred Williams - lead vocals
Eric Lee - lead guitar
Paul Leisy - rhythm and lead guitar
Freddy - bass
Peter Tillman - drums
Sharon Adams - vocals


Tracklist:
1. Smoke on the Hills 05:40
2. The Hold 04:47
3. Waiting for Death 04:56
4. Deep in the Dark 04:14
5. The Ultimate Fight 06:05
6. I Am the Death 04:22
7. Too Young to Know 08:39
8. Hatred 05:36
9. We'll Never Die 05:19
10. He Was Free 05:46
11. You'll Burn in Hell 05:01
12. Silver Wings 02:25
13. World Without Wrinkles 06:17
14. The End 07:46
15. Angel 05:05
Total Playing Time: 01:16:52

Spectrum
Image


LOG
Exact Audio Copy V0.99 prebeta 5 from 4. May 2009

Отчёт EAC об извлечении, выполненном 23. марта 2010, 14:32

Lust / We'll Never Die (Re-released In 2005)

Дисковод: PIONEER DVD-RW DVR-116D Adapter: 0 ID: 0

Режим чтения : Достоверность
Использование точного потока : Да
Отключение кэша аудио : Да
Использование указателей C2 : Нет

Коррекция смещения при чтении : 96
Способность читать области Lead-in и Lead-out : Нет
Заполнение пропущенных сэмплов тишиной : Да
Удаление блоков с тишиной в начале и конце : Нет
При вычислениях CRC использовались нулевые сэмплы : Да
Интерфейс : Встроенный Win32-интерфейс для Win NT/2000

Выходной формат : Пользовательский кодировщик
Выбранный битрейт : 32 kBit/s
Качество : Высокий
Добавление ID3-тэга : Нет
Утилита сжатия : C:\Program Files\Exact Audio Copy\Flac\flac.exe
Дополнительные параметры : -6 -V %s


TOC извлечённого CD

Трек | Старт | Длительность | Начальный сектор | Конечный сектор
---------------------------------------------------------------------
1 | 0:00.00 | 5:40.39 | 0 | 25538
2 | 5:40.39 | 4:52.44 | 25539 | 47482
3 | 10:33.08 | 4:55.41 | 47483 | 69648
4 | 15:28.49 | 6:04.14 | 69649 | 96962
5 | 21:32.63 | 4:21.43 | 96963 | 116580
6 | 25:54.31 | 8:41.26 | 116581 | 155681
7 | 34:35.57 | 4:15.50 | 155682 | 174856
8 | 38:51.32 | 0:18.36 | 174857 | 176242
9 | 39:09.68 | 5:19.12 | 176243 | 200179
10 | 44:29.05 | 5:46.18 | 200180 | 226147
11 | 50:15.23 | 5:01.41 | 226148 | 248763
12 | 55:16.64 | 2:25.74 | 248764 | 259712
13 | 57:42.63 | 6:17.05 | 259713 | 287992
14 | 63:59.68 | 7:46.66 | 287993 | 323008
15 | 71:46.59 | 5:05.04 | 323009 | 345887


Характеристики диапазона извлечения и сообщения об ошибках

Выбранный диапазон

Имя файла D:\Музыка\Lossless\Lust - We'll Never Die (Re-released In 2005) (1988)\Lust - We'll Never Die (Re-released In 2005).wav

Пиковый уровень 100.0 %
Качество диапазона 99.9 %
CRC копии 6C0B5A1D
Копирование... OK

Ошибок не произошло

Конец отчёта


CUE
REM GENRE "Heavy Metal"
REM DATE 1988
REM DISCID C612030F
REM COMMENT "ExactAudioCopy v0.99pb5"
PERFORMER "Lust"
TITLE "We'll Never Die (Re-released In 2005)"
FILE "Lust - We'll Never Die (Re-released In 2005).flac" WAVE
TRACK 01 AUDIO
TITLE "Smoke On The Hills"
PERFORMER "Lust"
INDEX 01 00:00:00
TRACK 02 AUDIO
TITLE "The Hold"
PERFORMER "Lust"
INDEX 01 05:40:39
TRACK 03 AUDIO
TITLE "Waiting For Death"
PERFORMER "Lust"
INDEX 01 10:33:08
TRACK 04 AUDIO
TITLE "The Ultimate Fight"
PERFORMER "Lust"
INDEX 01 15:28:49
TRACK 05 AUDIO
TITLE "I Am The Death"
PERFORMER "Lust"
INDEX 01 21:32:63
TRACK 06 AUDIO
TITLE "Too Young Too Know"
PERFORMER "Lust"
INDEX 01 25:54:31
TRACK 07 AUDIO
TITLE "Deep In The Dark"
PERFORMER "Lust"
INDEX 01 34:35:57
TRACK 08 AUDIO
TITLE "Hatred"
PERFORMER "Lust"
INDEX 01 38:51:32
TRACK 09 AUDIO
TITLE "We'll Never Die"
PERFORMER "Lust"
INDEX 01 39:09:68
TRACK 10 AUDIO
TITLE "He Was Free (Bonus)"
PERFORMER "Lust"
INDEX 01 44:29:05
TRACK 11 AUDIO
TITLE "You'll Burn In Hell (Bonus)"
PERFORMER "Lust"
INDEX 01 50:15:23
TRACK 12 AUDIO
TITLE "Silver Wings (Bonus)"
PERFORMER "Lust"
INDEX 01 55:16:64
TRACK 13 AUDIO
TITLE "A World Without Wrinkles (Bonus) "
PERFORMER "Lust"
INDEX 01 57:42:63
TRACK 14 AUDIO
TITLE "The End (Bonus)"
PERFORMER "Lust"
INDEX 01 63:59:68
TRACK 15 AUDIO
TITLE "Angel (Bonus)"
PERFORMER "Lust"
INDEX 01 71:46:59


Lossless

Covers


Last edited by church on 23 Mar 2010, edited 2 times in total.

Top
 Profile E-mail  
 
 
PostPosted: 17 Mar 2010 
труъ антисионист
User avatar
Joined: 01 Aug 2007
Posts: 4544
Lоcаtion: Откуда и большинство из нас
Age: 38
Name: Дядя Вова
Дим, ссылка на альбом и коврики одна и та же :oops:

_________________
Image
Image


Top
 Profile  
 
 
PostPosted: 17 Mar 2010 
Работнечег
User avatar
Joined: 28 Aug 2007
Posts: 5954
Lоcаtion: г. Москва
Age: 30
Name: Дима
Поправил! :oops:


Top
 Profile E-mail  
 
 
PostPosted: 19 Mar 2010 
Работнечег
User avatar
Joined: 28 Aug 2007
Posts: 5954
Lоcаtion: г. Москва
Age: 30
Name: Дима
Блин, лось неправильный ((( Пойду переделывать! Мои извинения.
Не знаю насколько это критично но вместо коррекции при чтении, случайно выставил комбинированную коррекцию при чтении/записи.При том что значение там неправильное скорее всего.


Top
 Profile E-mail  
 
 
PostPosted: 23 Mar 2010 
Работнечег
User avatar
Joined: 28 Aug 2007
Posts: 5954
Lоcаtion: г. Москва
Age: 30
Name: Дима
Перерипал диск с правильным смещением и перезалил.Ссылка с логом в первом посте обновлены.Просьба не полениться перекачать и не распространять неправильный рип! :cry:


Top
 Profile E-mail  
 
 
PostPosted: 24 Mar 2010 
Power Metal Maniac
User avatar
Joined: 09 Aug 2008
Posts: 6827
Lоcаtion: Москва
Age: 41
Name: Егор
:thanx: не забыть скачать

_________________
Long Live Metal!


Top
 Profile  
 
 
PostPosted: 24 Mar 2010 
дядя Миша
User avatar
Joined: 17 Oct 2008
Posts: 3170
Lоcаtion: USSR
Age: 56
Name: Khy
В настройках EAC , выбери англ. язык. Что бы log , прописывал на английском.
Скачал 99% и зависло. Распаковалось только cue и Log , а сам файл нет , архиватор -пишет ошибка.
спасибо, на торрент можешь оформить?


Top
 Profile  
 
 
PostPosted: 24 Mar 2010 
Работнечег
User avatar
Joined: 28 Aug 2007
Posts: 5954
Lоcаtion: г. Москва
Age: 30
Name: Дима
Я как-то спрашивал про язык, всем вроде было пофиг :umnik:
На торрент не вариант, я с ними не общаюсь.Могу сделать зеркало на ифолдер скажем...


Top
 Profile E-mail  
 
 
PostPosted: 25 Mar 2010 
Прокъмитолист
User avatar
Joined: 12 Aug 2007
Posts: 6593
Lоcаtion: Санктъ-Петербуркъ
Age: 51
Name: Олекъ
скачал правильного лося :oops: спасибо, Дим :thanx: :true:

_________________
прокъметол - это музыко, от которово есть прок (ы)


Top
 Profile  
 
 
PostPosted: 29 Mar 2010 
Пионэръ
Joined: 07 Apr 2009
Posts: 31
Lоcаtion: Deutschland
Age: 55
Name: Eric
Bolschoje Spasibo! :dance:

THX for this masterpiece!!!


Top
 Profile  
 
 
PostPosted: 03 Apr 2010 
дядя Миша
User avatar
Joined: 17 Oct 2008
Posts: 3170
Lоcаtion: USSR
Age: 56
Name: Khy
Решил заслушать..........НЕА , Мозг категорически отказался это есть.......Оч всё худо прописано.......


Top
 Profile  
 
 
PostPosted: 04 Apr 2010 
Работнечег
User avatar
Joined: 28 Aug 2007
Posts: 5954
Lоcаtion: г. Москва
Age: 30
Name: Дима
VARVAAR wrote:
Решил заслушать..........НЕА , Мозг категорически отказался это есть.......Оч всё худо прописано.......

Худо по звуку?


Top
 Profile E-mail  
 
 
PostPosted: 04 Apr 2010 
дядя Миша
User avatar
Joined: 17 Oct 2008
Posts: 3170
Lоcаtion: USSR
Age: 56
Name: Khy
Quote:
Худо по звуку?

Дело не в звуке даже. Играют слабо , я не услышал приличных гитар и.т.д , моё субъективное мнение конечно.


Top
 Profile  
 
Display posts from previous:  Sort by  
Post new topic Reply to topic  [ 13 posts ] 

All times are UTC + 3 hours


Who is online

Users browsing this forum: No registered users and 1 guest


You cannot post new topics in this forum
You cannot reply to topics in this forum
You cannot edit your posts in this forum
You cannot delete your posts in this forum
You cannot post attachments in this forum

Search for:
Яндекс.Метрика
Powered by phpBB © 2000, 2002, 2005, 2007 phpBB Group