\m/ 80's metal \m/

Информационно-аналитический форум "80 см пыли" (In Search We Trust) "У нас никто никуда не спешит"
Me For You - http://me-4u.com
It is currently 22 Aug 2019

All times are UTC + 3 hours

Spoiler
Chat - temporary registration for foreign users (please leave your application here)







Post new topic Reply to topic  [ 5 posts ] 
Author Message
 
PostPosted: 14 Jan 2010 
Генеральный thrasher
User avatar
Joined: 03 Oct 2008
Posts: 3717
Lоcаtion: Ханты-Мансийский АО
Age: 44
Name: Сергей
Image

Year: 2009 (Originally released in 1984)
Style: Thrash Metal
Country: U.S.A.
Format: Flac+Cue+Log
Size: 268Mb
Label: Massacre Records

Line-Up:
Michael Coons - Vocals
Aaron Jellum - Guitar
Phil Kettner - Guitar
Willie Lange - Bass
Victor Agnello - Drums

Tracklist:
1. City's Gonna Burn 04:19
2. Caught in the Act 03:11
3. Take No Prisoners 03:58
4. Dead Man's Eyes 03:38
5. Forced to Fight 03:48
6. Silent Scream 03:57
7. Prelude 04:03
8. Something More 02:57
9. Fire In The Hole (Live Bonus) 04:26
10. Liar (Live Bonus) 04:53

Cue
REM GENRE "Thrash Metal"
REM DATE 2009
REM DISCID 8309310A
REM COMMENT "ExactAudioCopy v0.99pb4"
PERFORMER "Laaz Rockit"
TITLE "City's Gonna Burn"
FILE "Laaz Rockit - City's Gonna Burn.flac" WAVE
TRACK 01 AUDIO
TITLE "Track01"
PERFORMER "Laaz Rockit"
INDEX 01 00:00:00
TRACK 02 AUDIO
TITLE "Track02"
PERFORMER "Laaz Rockit"
INDEX 01 04:16:59
TRACK 03 AUDIO
TITLE "Track03"
PERFORMER "Laaz Rockit"
INDEX 01 07:28:33
TRACK 04 AUDIO
TITLE "Track04"
PERFORMER "Laaz Rockit"
INDEX 01 11:26:47
TRACK 05 AUDIO
TITLE "Track05"
PERFORMER "Laaz Rockit"
INDEX 01 15:04:63
TRACK 06 AUDIO
TITLE "Track06"
PERFORMER "Laaz Rockit"
INDEX 01 18:52:50
TRACK 07 AUDIO
TITLE "Track07"
PERFORMER "Laaz Rockit"
INDEX 01 22:49:57
TRACK 08 AUDIO
TITLE "Track08"
PERFORMER "Laaz Rockit"
INDEX 01 26:54:17
TRACK 09 AUDIO
TITLE "Track09"
PERFORMER "Laaz Rockit"
INDEX 01 29:54:66
TRACK 10 AUDIO
TITLE "Track10"
PERFORMER "Laaz Rockit"
INDEX 01 34:20:14


Log
Exact Audio Copy V0.99 prebeta 4 from 23. January 2008

Отчёт EAC об извлечении, выполненном 14. января 2010, 10:32

Laaz Rockit / City's Gonna Burn

Дисковод: ATAPI DVD A DH20A4P Adapter: 0 ID: 1

Режим чтения : Достоверность
Использование точного потока : Да
Отключение кэша аудио : Да
Использование указателей C2 : Нет

Коррекция смещения при чтении : 6
Способность читать области Lead-in и Lead-out : Нет
Заполнение пропущенных сэмплов тишиной : Да
Удаление блоков с тишиной в начале и конце : Нет
При вычислениях CRC использовались нулевые сэмплы : Нет
Интерфейс : Установленный внешний ASPI-интерфейс

Выходной формат : Пользовательский кодировщик
Выбранный битрейт : 768 kBit/s
Качество : Высокий
Добавление ID3-тэга : Нет
Утилита сжатия : C:\Program Files\Exact Audio Copy\FLAC\FLAC.EXE
Дополнительные параметры : -6 -V -T "ARTIST=%a" -T "TITLE=%t" -T "ALBUM=%g" -T "DATE=%y" -T "TRACKNUMBER=%n" -T "GENRE=%m" -T "COMMENT=%e" %s -o %d


TOC извлечённого CD

Трек | Старт | Длительность | Начальный сектор | Конечный сектор
---------------------------------------------------------------------
1 | 0:00.00 | 4:16.59 | 0 | 19258
2 | 4:16.59 | 3:11.49 | 19259 | 33632
3 | 7:28.33 | 3:58.14 | 33633 | 51496
4 | 11:26.47 | 3:38.16 | 51497 | 67862
5 | 15:04.63 | 3:47.62 | 67863 | 84949
6 | 18:52.50 | 3:57.07 | 84950 | 102731
7 | 22:49.57 | 4:04.35 | 102732 | 121066
8 | 26:54.17 | 3:00.49 | 121067 | 134615
9 | 29:54.66 | 4:25.23 | 134616 | 154513
10 | 34:20.14 | 4:53.49 | 154514 | 176537


Характеристики диапазона извлечения и сообщения об ошибках

Выбранный диапазон

Имя файла F:\Лоси\Laaz Rockit - City's Gonna Burn.wav

Пиковый уровень 100.0 %
Качество диапазона 100.0 %
CRC копии 00695AFC
Копирование... OK

Ошибок не произошло


AccurateRip: сводка

Трек 1 точное извлечение (доверие 1) [4222050C]
Трек 2 точное извлечение (доверие 1) [DD1816D7]
Трек 3 точное извлечение (доверие 1) [FD8ABE50]
Трек 4 точное извлечение (доверие 1) [0D4303A7]
Трек 5 точное извлечение (доверие 1) [FBBD56DE]
Трек 6 точное извлечение (доверие 1) [EBDBCC88]
Трек 7 точное извлечение (доверие 1) [D46A6D11]
Трек 8 точное извлечение (доверие 1) [E198D1C1]
Трек 9 точное извлечение (доверие 1) [4354B29B]
Трек 10 точное извлечение (доверие 1) [98A3663C]

Все треки извлечены точно

Конец отчёта


Part 1
Part 2
Part 3
Part 4


Top
 Profile  
 
 
PostPosted: 14 Jan 2010 
Работнечег
User avatar
Joined: 28 Aug 2007
Posts: 5939
Lоcаtion: г. Москва
Age: 30
Name: Дима
Быстро ты выложил) как тебе звук на переизданиях?


Top
 Profile E-mail  
 
 
PostPosted: 15 Jan 2010 
Генеральный thrasher
User avatar
Joined: 03 Oct 2008
Posts: 3717
Lоcаtion: Ханты-Мансийский АО
Age: 44
Name: Сергей
church wrote:
Быстро ты выложил) как тебе звук на переизданиях?


По моему хороший звук.Да и альбом отличный.


Top
 Profile  
 
 
PostPosted: 15 Jan 2010 
Thrasher
User avatar
Joined: 07 Oct 2007
Posts: 2782
Lоcаtion: Russia, Moscow
Age: 35
Name: Drunk & Evil
Спасибо!

_________________
ВОДКА, БАБЫ И БЛЮЗ / 40° till death... :bodun:
One time we saw some hookers, but when we got closer, we realised it was Mötley Crüe. ©


Top
 Profile  
 
 
PostPosted: 28 Jan 2010 
Прокъмитолист
User avatar
Joined: 12 Aug 2007
Posts: 6590
Lоcаtion: Санктъ-Петербуркъ
Age: 51
Name: Олекъ
спасибо, Сергей! :thanx:

_________________
прокъметол - это музыко, от которово есть прок (ы)


Top
 Profile  
 
Display posts from previous:  Sort by  
Post new topic Reply to topic  [ 5 posts ] 

All times are UTC + 3 hours


Who is online

Users browsing this forum: No registered users and 1 guest


You cannot post new topics in this forum
You cannot reply to topics in this forum
You cannot edit your posts in this forum
You cannot delete your posts in this forum
You cannot post attachments in this forum

Search for:
Яндекс.Метрика
Powered by phpBB © 2000, 2002, 2005, 2007 phpBB Group