\m/ 80's metal \m/

Информационно-аналитический форум "80 см пыли" (In Search We Trust) "У нас никто никуда не спешит"
Me For You - http://me-4u.com
It is currently 19 Jun 2019

All times are UTC + 3 hours

Spoiler
Chat - temporary registration for foreign users (please leave your application here)







Post new topic Reply to topic  [ 14 posts ] 
Author Message
 
PostPosted: 18 Oct 2009 
Работнечег
User avatar
Joined: 28 Aug 2007
Posts: 5846
Lоcаtion: г. Москва
Age: 30
Name: Дима
Image
Band: Legions Of War
Album: Towards Death
Year: 2009
Label: Infernö Records
Genre: Black/Heavy/Thrash Metal
Coutry: Sweden
Format: Flac + Log + Cue + Covers
Size: 260 Mb + 2 Video (137 Mb)

Line-Up:
Zyklon - Vocals / Guitar
Widowreaper - Lead Guitar
Hellwind - Bass
C.Stalinorgel - Drums


Tracklist:
1. Deep in the Dark 03:19
2. Master of the War 03:50
3. Mission to Kill 03:40
4. Ensemble of Fear 04:25
5. Lamentations Through the Silence 03:43
6. Proclamation of War 03:14
7. Reflections From the Past - A Soldier's Departure Pt. 1 05:47
8. Dead Man Walking - A Soldier's Departure Pt. 2 02:51
9. Reapers in Command 03:21
10. The Sniper 05:33
Total playing time 39:43

Included are bonus videos for "Mission to Kill" and "Deep in the Dark"
LOG
Отчёт EAC об извлечении, выполненном 15. августа 2009, 21:53 для диска:
Legions Of War / Towards Death

Дисковод: PIONEER DVD-RW DVR-116D Adapter: 0 ID: 0
Режим чтения: Достоверный (C2: нет, Точный поток: да, Отключение кэша: да)
Коррекция смещения при чтении: 96
Способность читать области Lead-in и Lead-out : Нет

Выходной формат: Внутренние WAV-операции
44.100 Гц; 16 бит; стерео

Другие параметры:
Заполнение пропущенных сэмплов тишиной : Да
Удаление блоков с тишиной в начале и конце : Нет
Установленный внешний ASPI-интерфейс


Характеристики диапазона извлечения и сообщения об ошибках
Выбранный диапазон
Имя файла D:\Музыка\Lossless\Legions Of War - Towards Death.wav

Пиковый уровень 80.4 %
Качество диапазона 100.0 %
CRC F5D3597E
Копирование... OK

Ошибок не произошло

Конец отчёта


CUE
REM GENRE "Black/Thrash Metal"
REM DATE 2009
REM DISCID 770D930B
REM COMMENT "ExactAudioCopy v0.95b4"
PERFORMER "Legions Of War"
TITLE "Towards Death"
FILE "Legions Of War - Towards Death.wav" WAVE
TRACK 01 AUDIO
TITLE "Deep In The Dark"
PERFORMER "Legions Of War"
INDEX 01 00:00:00
TRACK 02 AUDIO
TITLE "Master Of The War"
PERFORMER "Legions Of War"
INDEX 00 03:17:15
INDEX 01 03:19:14
TRACK 03 AUDIO
TITLE "Mission To Kill"
PERFORMER "Legions Of War"
INDEX 00 07:06:70
INDEX 01 07:08:69
TRACK 04 AUDIO
TITLE "Ensemble Of Fear"
PERFORMER "Legions Of War"
INDEX 00 10:47:17
INDEX 01 10:49:16
TRACK 05 AUDIO
TITLE "Lamentations Through The Silence"
PERFORMER "Legions Of War"
INDEX 00 15:12:13
INDEX 01 15:14:12
TRACK 06 AUDIO
TITLE "Proclamation Of War"
PERFORMER "Legions Of War"
INDEX 00 18:55:14
INDEX 01 18:57:13
TRACK 07 AUDIO
TITLE "Reflections From The Past (A Soldiers Departure Part 1)"
PERFORMER "Legions Of War"
INDEX 00 22:08:73
INDEX 01 22:10:72
TRACK 08 AUDIO
TITLE "Dead Man Walking (A Soldiers Departure Part 2)"
PERFORMER "Legions Of War"
INDEX 00 27:56:28
INDEX 01 27:58:26
TRACK 09 AUDIO
TITLE "Reapers In Command"
PERFORMER "Legions Of War"
INDEX 00 30:47:49
INDEX 01 30:49:48
TRACK 10 AUDIO
TITLE "The Sniper"
PERFORMER "Legions Of War"
INDEX 00 34:08:19
INDEX 01 34:10:18


Spectrum
Image


http://www.ifolder.ru/14163626
http://www.ifolder.ru/14163627
http://www.ifolder.ru/14163628
Legions Of War - Deep In The Dark (VIDEO)
Legions Of War - With Mission To Kill (VIDEO)
Myspace
Может немного не в тему форума.Но очень мне понравился альбом, хотя я не могу назвать себя большим поклонником блэк/трэша.


Top
 Profile E-mail  
 
 
PostPosted: 18 Oct 2009 
Thrasher
User avatar
Joined: 07 Oct 2007
Posts: 2760
Lоcаtion: Russia, Moscow
Age: 35
Name: Drunk & Evil
Спасибо, Дим... заценю

_________________
ВОДКА, БАБЫ И БЛЮЗ / 40° till death... :bodun:
One time we saw some hookers, but when we got closer, we realised it was Mötley Crüe. ©


Top
 Profile  
 
 
PostPosted: 18 Oct 2009 
Хиппей (support team)
User avatar
Joined: 30 Jul 2007
Posts: 113085
Lоcаtion: Киев (Kyiv, UA)
Age: 46
Name: Andrey
Димка, спасибо :true:

И вопрос сразу - как у тебя дела в заливкой на Народ или Мегу?

_________________


Top
 Profile E-mail  
 
 
PostPosted: 18 Oct 2009 
Работнечег
User avatar
Joined: 28 Aug 2007
Posts: 5846
Lоcаtion: г. Москва
Age: 30
Name: Дима
Scatterbrain wrote:
И вопрос сразу - как у тебя дела в заливкой на Народ или Мегу?

Андрюх я ни туда, ни туда уже с полгода как ничего не заливал почти.Мега вроде норм была раньше, народ я не люблю.У меня и скачка с него медленно идёт и загрузка через раз была.Так что в топку его.


Top
 Profile E-mail  
 
 
PostPosted: 18 Oct 2009 
Хиппей (support team)
User avatar
Joined: 30 Jul 2007
Posts: 113085
Lоcаtion: Киев (Kyiv, UA)
Age: 46
Name: Andrey
Ага, ок. Я чему это всё. Через пару месяцев твои ссылки на фолдыре пропадут :pardon: А на Народе продлевать их намного легче и быстрее, особенно если заливать одним куском.

_________________


Top
 Profile E-mail  
 
 
PostPosted: 18 Oct 2009 
Работнечег
User avatar
Joined: 28 Aug 2007
Posts: 5846
Lоcаtion: г. Москва
Age: 30
Name: Дима
Андрюх если мои ссылки скачают больше 5 раз это будет рекорд.Один разок я их продлю, месяца полтора проживут.Кому надо будет скачает.На народе конечно проще пока у тебя заливок немного, но мне туда заливать геммморнее.Так что пока так.Если что перезалить всегда могу неспеша.


Top
 Profile E-mail  
 
 
PostPosted: 18 Oct 2009 
Хиппей (support team)
User avatar
Joined: 30 Jul 2007
Posts: 113085
Lоcаtion: Киев (Kyiv, UA)
Age: 46
Name: Andrey
church wrote:
Если что перезалить всегда могу неспеша.

А, тогда норм. А то у меня с этим проблемы :crazy:

_________________


Top
 Profile E-mail  
 
 
PostPosted: 10 Jan 2010 
А может смените мне статус?..
User avatar
Joined: 02 Feb 2009
Posts: 999
Lоcаtion: из Тулы
Age: 45
Name: Максим
а нельзя перезалить?
ссылки померли
спасибо заранее

_________________
КМА


Top
 Profile  
 
 
PostPosted: 10 Jan 2010 
Хиппей (support team)
User avatar
Joined: 30 Jul 2007
Posts: 113085
Lоcаtion: Киев (Kyiv, UA)
Age: 46
Name: Andrey
church wrote:
Так что пока так.Если что перезалить всегда могу неспеша.

:oops:

_________________


Top
 Profile E-mail  
 
 
PostPosted: 10 Jan 2010 
хард н хэвщик (support team)
User avatar
Joined: 02 Jun 2008
Posts: 16881
Lоcаtion: Н.Новгород
Age: 32
Name: Артем
а я-то думал, щас будет "я кажись как всегда не качал" :crazy:


Top
 Profile  
 
 
PostPosted: 10 Jan 2010 
Хиппей (support team)
User avatar
Joined: 30 Jul 2007
Posts: 113085
Lоcаtion: Киев (Kyiv, UA)
Age: 46
Name: Andrey
McKagan wrote:
а я-то думал, щас будет "я кажись как всегда не качал" :crazy:

Ну эта фраза уже сама собой подразумевается :crazy:
Уже начинаю забывать, когда что-то качал вообще. Тут бы старое разгрести... :fingal:

_________________


Top
 Profile E-mail  
 
 
PostPosted: 10 Jan 2010 
Работнечег
User avatar
Joined: 28 Aug 2007
Posts: 5846
Lоcаtion: г. Москва
Age: 30
Name: Дима
overkiller wrote:
а нельзя перезалить?
ссылки померли
спасибо заранее

На недельке перезалью.


Top
 Profile E-mail  
 
 
PostPosted: 11 Jan 2010 
Работнечег
User avatar
Joined: 28 Aug 2007
Posts: 5846
Lоcаtion: г. Москва
Age: 30
Name: Дима
Narod.ru


Top
 Profile E-mail  
 
 
PostPosted: 11 Jan 2010 
А может смените мне статус?..
User avatar
Joined: 02 Feb 2009
Posts: 999
Lоcаtion: из Тулы
Age: 45
Name: Максим
спасибо

_________________
КМА


Top
 Profile  
 
Display posts from previous:  Sort by  
Post new topic Reply to topic  [ 14 posts ] 

All times are UTC + 3 hours


Who is online

Users browsing this forum: No registered users and 1 guest


You cannot post new topics in this forum
You cannot reply to topics in this forum
You cannot edit your posts in this forum
You cannot delete your posts in this forum
You cannot post attachments in this forum

Search for:
Яндекс.Метрика
cron
Powered by phpBB © 2000, 2002, 2005, 2007 phpBB Group