\m/ 80's metal \m/

Информационно-аналитический форум "80 см пыли" (In Search We Trust) "У нас никто никуда не спешит"
Me For You - http://me-4u.com
It is currently 24 Aug 2019

All times are UTC + 3 hours

Spoiler
Chat - temporary registration for foreign users (please leave your application here)







Post new topic Reply to topic  [ 13 posts ] 
Author Message
 
PostPosted: 18 Sep 2009 
Я набрал 1000 сообщений!
User avatar
Joined: 25 Dec 2008
Posts: 1545
Age: 43
Name: Павел
Leather Nunn - Take the Night
Genre:Heavy Metal
Country:USA
Year:1986
Format:APE+cue+log+covers
Size:383Mb

log
EAC extraction logfile from 3. October 2007, 20:49 for CD
Leather Nunn / Take The Night

Used drive : PIONEER DVD-RW DVR-111D Adapter: 1 ID: 1
Read mode : Secure with NO C2, accurate stream, disable cache
Read offset correction : 48
Overread into Lead-In and Lead-Out : No

Used output format : C:\Program Files\EAC\MAC.EXE (Monkey's Audio Lossless Encoder)
High Lossless Compression

Other options :
Fill up missing offset samples with silence : Yes
Delete leading and trailing silent blocks : No
Native Win32 interface for Win NT & 2000


Range status and errors
Selected range
Filename C:\Program Files\EAC\LeatherNunn.wav

Peak level 99.9 %
Range quality 100.0 %
CRC CCB22738
Copy OK

No errors occured

End of status report

cue
PERFORMER "Leather Nunn"
TITLE "Take The Night"
FILE "LeatherNunn.ape" WAVE
TRACK 01 AUDIO
TITLE "Foolґs Way Out"
PERFORMER "Leather Nunn"
INDEX 00 00:00:00
INDEX 01 00:00:01
TRACK 02 AUDIO
TITLE "Leather Nunn"
PERFORMER "Leather Nunn"
INDEX 01 04:12:10
TRACK 03 AUDIO
TITLE "Take The Night"
PERFORMER "Leather Nunn"
INDEX 01 08:27:31
TRACK 04 AUDIO
TITLE "Youґre The One"
PERFORMER "Leather Nunn"
INDEX 01 13:05:18
TRACK 05 AUDIO
TITLE "Another Bite"
PERFORMER "Leather Nunn"
INDEX 01 17:22:71
TRACK 06 AUDIO
TITLE "Taken Ground"
PERFORMER "Leather Nunn"
INDEX 01 21:32:55
TRACK 07 AUDIO
TITLE "Take Me Back"
PERFORMER "Leather Nunn"
INDEX 01 26:29:26
TRACK 08 AUDIO
TITLE "New Life"
PERFORMER "Leather Nunn"
INDEX 01 31:41:29
TRACK 09 AUDIO
TITLE "Mental Asylum"
PERFORMER "Leather Nunn"
INDEX 01 36:28:60
TRACK 10 AUDIO
TITLE "Let The Children Shout (Bonus Track)"
PERFORMER "Leather Nunn"
INDEX 01 41:33:29
TRACK 11 AUDIO
TITLE "Keep The Dream Alive (Bonus Track)"
PERFORMER "Leather Nunn"
INDEX 01 44:55:41
TRACK 12 AUDIO
TITLE "Ride Forever (Bonus Track)"
PERFORMER "Leather Nunn"
INDEX 01 47:12:16
TRACK 13 AUDIO
TITLE "Driving Me Wild (Bonus Track)"
PERFORMER "Leather Nunn"
INDEX 01 50:57:51


Image

Tracklist:
1.Fool's Way Out
2.Leather Nunn
3.Take the Night
4.You're the One
5.Another Bite
6.Taken Ground
7.Take me Back
8.New Life
9.Mental Asylum
Bonus tracks:
10. Let the Children Shout
11. Keep the Dream Alive
12. Ride Forever
13. Driving Me Wild

Переиздание от 2003 года от Metal Reunion Records с бонусами.Просто классный альбом!
Релиз от Exploded(MMT).

LEATHER NUNN [1986-2003] [CD] TAKE THE NIGHT [EAC-APE] .rar


Top
 Profile  
 
 
PostPosted: 18 Sep 2009 
Хиппей (support team)
User avatar
Joined: 30 Jul 2007
Posts: 114077
Lоcаtion: Киев (Kyiv, UA)
Age: 46
Name: Andrey
Спасибо! :thanx:

_________________


Top
 Profile E-mail  
 
 
PostPosted: 18 Sep 2009 
Я набрал 1000 сообщений!
Joined: 12 Dec 2008
Posts: 1066
Lоcаtion: BULGARIA
Age: 40
Name: DIMITЪR
Thanks!!!


Top
 Profile  
 
 
PostPosted: 18 Sep 2009 
Old Time Rock`n`Roll
User avatar
Joined: 23 Jun 2008
Posts: 3467
Lоcаtion: г.Ульяновск
Age: 41
Name: Константин
:thanx:


Top
 Profile  
 
 
PostPosted: 18 Sep 2009 
Труъ
User avatar
Joined: 14 Jul 2009
Posts: 158
Lоcаtion: Hell Is Here
Age: 49
Name: Adriano
Many Thanx !! :thanx: :thanx: :thanx:


Top
 Profile E-mail  
 
 
PostPosted: 18 Sep 2009 
труъ антисионист
User avatar
Joined: 01 Aug 2007
Posts: 4544
Lоcаtion: Откуда и большинство из нас
Age: 38
Name: Дядя Вова
Павел, спасибо! :true:

_________________
Image
Image


Top
 Profile  
 
 
PostPosted: 04 May 2010 
хард н хэвщик (support team)
User avatar
Joined: 02 Jun 2008
Posts: 16881
Lоcаtion: Н.Новгород
Age: 32
Name: Артем
оригинальный винил ушел за 600$ :dash:


Top
 Profile  
 
 
PostPosted: 14 Jun 2012 
Труъ
User avatar
Joined: 01 Nov 2009
Posts: 116
Lоcаtion: Нефтекумск
Age: 42
Name: Олег
А ссылка то нерабочая. Мог бы кто-нибудь перезалить, плиз.

_________________
Heavy Metal Is The Law!


Top
 Profile E-mail  
 
 
PostPosted: 15 Jun 2012 
Old Time Rock`n`Roll
User avatar
Joined: 23 Jun 2008
Posts: 3467
Lоcаtion: г.Ульяновск
Age: 41
Name: Константин
Leather Nunn-86

narod-FLAC


Top
 Profile  
 
 
PostPosted: 28 Jun 2012 
Персональный статус
User avatar
Joined: 22 Oct 2011
Posts: 352
Lоcаtion: Moscow
Age: 60
Name: Серёжа
:thanx:


Top
 Profile E-mail  
 
 
PostPosted: 03 Jul 2016 
Я набрал 1000 сообщений!
Joined: 21 Nov 2009
Posts: 1414
Lоcаtion: praga
Age: 49
Name: Сергей
можно обновить ссылку? :fingal:


Top
 Profile E-mail  
 
 
PostPosted: 03 Jul 2016 
Old Time Rock`n`Roll
User avatar
Joined: 23 Jun 2008
Posts: 3467
Lоcаtion: г.Ульяновск
Age: 41
Name: Константин
Leather Nunn-86 [ape]


Top
 Profile  
 
 
PostPosted: 03 Jul 2016 
Я набрал 1000 сообщений!
Joined: 21 Nov 2009
Posts: 1414
Lоcаtion: praga
Age: 49
Name: Сергей
:thanx: :true:


Top
 Profile E-mail  
 
Display posts from previous:  Sort by  
Post new topic Reply to topic  [ 13 posts ] 

All times are UTC + 3 hours


Who is online

Users browsing this forum: No registered users and 1 guest


You cannot post new topics in this forum
You cannot reply to topics in this forum
You cannot edit your posts in this forum
You cannot delete your posts in this forum
You cannot post attachments in this forum

Search for:
Яндекс.Метрика
Powered by phpBB © 2000, 2002, 2005, 2007 phpBB Group