\m/ 80's metal \m/

Информационно-аналитический форум "80 см пыли" (In Search We Trust) "У нас никто никуда не спешит"
Me For You - http://me-4u.com
It is currently 24 Aug 2019

All times are UTC + 3 hours

Spoiler
Chat - temporary registration for foreign users (please leave your application here)







Post new topic Reply to topic  [ 3 posts ] 
Author Message
 
PostPosted: 02 Aug 2009 
Power Metal Maniac
User avatar
Joined: 09 Aug 2008
Posts: 6827
Lоcаtion: Москва
Age: 41
Name: Егор
Lee Z - Shadowland

Image

Genre: Melodic/Progressive Metal
Year: 2005
Country: Germany
Codec: EAC, APE, image+.cue
Size: 338 Mb
Time: 47:00
Tracks:
1. Shadowland 07:44
2. Enemy in me 03:35
3. Cold days 04:20
4. Save me 06:08
5. Alive 05:16
6. Nights in Dover 04:49
7. Troublemaker 03:23
8. Sweet surrender 04:58
9. Fallen from grace 03:18
10. Peaceful lake 03:25

line up:
Peter Pauliks: vocals
Thomas Zink: guitar
Matthias Rethmann: bass
Dirk Brand: drums

"Отчет EAC"
Exact Audio Copy V0.99 prebeta 4 from 23. January 2008

EAC extraction logfile from 2. August 2009, 14:15

Lee Z / Shadowland

Used drive : TEAC DV-W516GB Adapter: 0 ID: 2

Read mode : Secure
Utilize accurate stream : Yes
Defeat audio cache : Yes
Make use of C2 pointers : No

Read offset correction : 12
Overread into Lead-In and Lead-Out : No
Fill up missing offset samples with silence : Yes
Delete leading and trailing silent blocks : No
Null samples used in CRC calculations : Yes
Used interface : Native Win32 interface for Win NT & 2000

Used output format : Internal WAV Routines
Sample format : 44.100 Hz; 16 Bit; Stereo

TOC of the extracted CD

Track | Start | Length | Start sector | End sector
---------------------------------------------------------
1 | 0:00.00 | 7:44.73 | 0 | 34872
2 | 7:44.73 | 3:35.08 | 34873 | 51005
3 | 11:20.06 | 4:20.44 | 51006 | 70549
4 | 15:40.50 | 6:08.38 | 70550 | 98187
5 | 21:49.13 | 5:16.21 | 98188 | 121908
6 | 27:05.34 | 4:49.46 | 121909 | 143629
7 | 31:55.05 | 3:23.48 | 143630 | 158902
8 | 35:18.53 | 4:58.64 | 158903 | 181316
9 | 40:17.42 | 3:18.06 | 181317 | 196172
10 | 43:35.48 | 3:25.07 | 196173 | 211554

Range status and errors

Selected range

Filename I:\torrents\Lee Z 2005 - Shadowland\Lee Z - Shadowland.wav

Peak level 100.0 %
Range quality 100.0 %
Copy CRC 06A9F75D
Copy OK

No errors occurred

End of status report


Народ

_________________
Long Live Metal!


Top
 Profile  
 
 
PostPosted: 02 Aug 2009 
Прокъмитолист
User avatar
Joined: 12 Aug 2007
Posts: 6593
Lоcаtion: Санктъ-Петербуркъ
Age: 51
Name: Олекъ
мои благодарности, дружище! :thanx:

_________________
прокъметол - это музыко, от которово есть прок (ы)


Top
 Profile  
 
 
PostPosted: 07 Oct 2009 
Хиппей (support team)
User avatar
Joined: 30 Jul 2007
Posts: 114077
Lоcаtion: Киев (Kyiv, UA)
Age: 46
Name: Andrey
Спасибо, Егор! :thanx:
Странно, но альбом мне понравился :shok:
Возможно из-за того, что музыка более-менее разноплановая, хоть и с современным саундом, но нет вокала в духе Киске :oops: Впрочем, здесь и прога самая малость. А вокал обычный, но приятный.
Мощная и мелодичная работа :meloman:

_________________


Top
 Profile E-mail  
 
Display posts from previous:  Sort by  
Post new topic Reply to topic  [ 3 posts ] 

All times are UTC + 3 hours


Who is online

Users browsing this forum: No registered users and 1 guest


You cannot post new topics in this forum
You cannot reply to topics in this forum
You cannot edit your posts in this forum
You cannot delete your posts in this forum
You cannot post attachments in this forum

Search for:
Яндекс.Метрика
Powered by phpBB © 2000, 2002, 2005, 2007 phpBB Group