\m/ 80's metal \m/

Информационно-аналитический форум "80 см пыли" (In Search We Trust) "У нас никто никуда не спешит"
Me For You - http://me-4u.com
It is currently 21 Sep 2019

All times are UTC + 3 hours

Spoiler
Chat - temporary registration for foreign users (please leave your application here)







Post new topic Reply to topic  [ 4 posts ] 
Author Message
 
PostPosted: 26 Jun 2009 
труъ антисионист
User avatar
Joined: 01 Aug 2007
Posts: 4544
Lоcаtion: Откуда и большинство из нас
Age: 38
Name: Дядя Вова
Image
Группа: Laaz Rockit
Альбом: No Stranger To Danger
Год: 1985
Лейбл: Target / OSM Records
Стиль: Power/Thrash Metal
Страна: Пиндосия
Формат: FLAC image+.cue
Размер: 236 Mb

***********************************************************************************************

Line Up:

Michael Coons - vocals
Aaron Jellum - guitars
Phil Kettner - guitars
Willy Lange - bass
Victor Agnello - drums



Tracks:
1. Dreams Die Hard 04:42
2. I've Got Time 04:40
3. Town to Town 04:08
4. Backbreaker 03:45
5. Stand Alone 04:19
6. Spared From the Fire 04:23
7. Off the Deep End 03:35
8. Tonight Alive 03:39
9. Wrecking Machine 04:43


LOG
Exact Audio Copy V0.99 prebeta 3 from 28. July 2007
EAC extraction logfile from 20. December 2008, 14:40
Lддz Rockit / No Stranger To Danger
Used drive : LITE-ON DVDRW SHM-165P6S Adapter: 1 ID: 1
Read mode : Secure
Utilize accurate stream : Yes
Defeat audio cache : Yes
Make use of C2 pointers : No
Read offset correction : 6
Overread into Lead-In and Lead-Out : No
Fill up missing offset samples with silence : Yes
Delete leading and trailing silent blocks : No
Null samples used in CRC calculations : Yes
Used interface : Installed external ASPI interface
Used output format : Internal WAV Routines
Sample format : 44.100 Hz; 16 Bit; Stereo
TOC of the extracted CD
Track | Start | Length | Start sector | End sector
---------------------------------------------------------
1 | 0:00.00 | 4:43.07 | 0 | 21231
2 | 4:43.07 | 4:42.10 | 21232 | 42391
3 | 9:25.17 | 4:09.05 | 42392 | 61071
4 | 13:34.22 | 3:46.25 | 61072 | 78046
5 | 17:20.47 | 4:22.08 | 78047 | 97704
6 | 21:42.55 | 4:26.05 | 97705 | 117659
7 | 26:08.60 | 3:36.20 | 117660 | 133879
8 | 29:45.05 | 3:38.60 | 133880 | 150289
9 | 33:23.65 | 4:44.60 | 150290 | 171649
Range status and errors
Selected range
Filename J:\MMT\Lддz Rockit - No Stranger To Danger.wav
Peak level 99.1 %
Range quality 100.0 %
Copy CRC 1B054D4F
Copy OK
No errors occurred
AccurateRip summary
Track 1 cannot be verified as accurate (confidence 1) [73D1D397], AccurateRip returned [BD0F8CE8]
Track 2 cannot be verified as accurate (confidence 1) [6B95F41B], AccurateRip returned [13E1C31D]
Track 3 cannot be verified as accurate (confidence 1) [E04B3B9F], AccurateRip returned [138C9308]
Track 4 cannot be verified as accurate (confidence 1) [A90977D9], AccurateRip returned [D56BFBE9]
Track 5 cannot be verified as accurate (confidence 1) [FF1367F6], AccurateRip returned [278A0BC4]
Track 6 cannot be verified as accurate (confidence 1) [6F4A5EFD], AccurateRip returned [C8F4FA2D]
Track 7 cannot be verified as accurate (confidence 1) [CAFB0A3B], AccurateRip returned [1A8E5561]
Track 8 cannot be verified as accurate (confidence 1) [27747BEB], AccurateRip returned [D7772BCD]
Track 9 cannot be verified as accurate (confidence 1) [8B908C5B], AccurateRip returned [34F7DE42]
No tracks could be verified as accurate
You may have a different pressing from the one(s) in the database
End of status report


Передаём спасибо товарищу, под ником glloomerxe

===================================DOWNLOAD========================================

http://ifolder.ru/12756316
http://ifolder.ru/12756626
http://ifolder.ru/12756792

http://rapidshare.com/files/247097358/L ... .part1.rar
http://rapidshare.com/files/247108960/L ... .part2.rar
http://rapidshare.com/files/247112825/L ... .part3.rar

_________________
Image
Image


Top
 Profile  
 
 
PostPosted: 26 Jun 2009 
Хиппей (support team)
User avatar
Joined: 30 Jul 2007
Posts: 114411
Lоcаtion: Киев (Kyiv, UA)
Age: 46
Name: Andrey
Glot wrote:
Передаём спасибо товарищу, под ником glloomerxe

С ММТ?
Спасибо! :thanx:

_________________


Top
 Profile E-mail  
 
 
PostPosted: 26 Jun 2009 
труъ антисионист
User avatar
Joined: 01 Aug 2007
Posts: 4544
Lоcаtion: Откуда и большинство из нас
Age: 38
Name: Дядя Вова
Scatterbrain wrote:
Glot wrote:
Передаём спасибо товарищу, под ником glloomerxe

С ММТ?
Спасибо! :thanx:

Я вроде с торрент-сру его стянул.

_________________
Image
Image


Top
 Profile  
 
 
PostPosted: 26 Jun 2009 
Хиппей (support team)
User avatar
Joined: 30 Jul 2007
Posts: 114411
Lоcаtion: Киев (Kyiv, UA)
Age: 46
Name: Andrey
Мдя, неисповедимы пути личерские :crazy:

_________________


Top
 Profile E-mail  
 
Display posts from previous:  Sort by  
Post new topic Reply to topic  [ 4 posts ] 

All times are UTC + 3 hours


Who is online

Users browsing this forum: No registered users and 1 guest


You cannot post new topics in this forum
You cannot reply to topics in this forum
You cannot edit your posts in this forum
You cannot delete your posts in this forum
You cannot post attachments in this forum

Search for:
Яндекс.Метрика
Powered by phpBB © 2000, 2002, 2005, 2007 phpBB Group