\m/ 80's metal \m/

Информационно-аналитический форум "80 см пыли" (In Search We Trust) "У нас никто никуда не спешит"
Me For You - http://me-4u.com
It is currently 20 Aug 2019

All times are UTC + 3 hours

Spoiler
Chat - temporary registration for foreign users (please leave your application here)







Post new topic Reply to topic  [ 22 posts ]  Go to page 1, 2  Next
Author Message
 
PostPosted: 20 Jun 2009 
Хиппей (support team)
User avatar
Joined: 30 Jul 2007
Posts: 114007
Lоcаtion: Киев (Kyiv, UA)
Age: 46
Name: Andrey
Liege Lord - 1985 - Freedom's Rise (reissued 2000)

    Image

Genre: Speed Power Heavy
Locaion: USA
Format: flac (tracks)+cue+log+covers
Size: 247 Mb


Line-up:
Vocals: Andy Michaud
Guitar: Pete McCarthy
Guitar: Tony Truglio
Bass: Matt Vinci
Drums: Frank Cortese

    1. Prodigy - 01:04
    2. Wielding Iron Fists - 03:15
    3. Dark Tale - 03:36
    4. Amnesty - 03:30
    5. Rage of Angels - 04:16
    6. Vials of Wrath - 04:46
    7. Warriors Farewell - 04:08
    8. For the King - 04:28
    9. Legionnaire - 03:54

    TPT: 32:58

Narod
Mega

Released by Soylent Green

log
EAC extraction logfile from 4. July 2007, 0:24 for CD
Liege Lord / Freedom's Rise (2000 Reissue)

Used drive : BENQ DVD DD DW1620 Adapter: 1 ID: 0
Read mode : Secure with NO C2, accurate stream, NO disable cache
Read offset correction : 618
Overread into Lead-In and Lead-Out : No

Used output format : Internal WAV Routines
44.100 Hz; 16 Bit; Stereo

Other options :
Fill up missing offset samples with silence : Yes
Delete leading and trailing silent blocks : No
Installed external ASPI interface


Track 1
Filename C:\Documents and Settings\Soylent Green\Desktop\New Folder\EAC Files\Liege Lord - Freedom's Rise (2000 Reissue) - 01 - Prodigy.wav

Peak level 100.0 %
Track quality 100.0 %
Test CRC 23A1C7EA
Copy CRC 23A1C7EA
Copy OK

Track 2
Filename C:\Documents and Settings\Soylent Green\Desktop\New Folder\EAC Files\Liege Lord - Freedom's Rise (2000 Reissue) - 02 - Wielding Iron Fists.wav

Peak level 100.0 %
Track quality 100.0 %
Test CRC EDDEF070
Copy CRC EDDEF070
Copy OK

Track 3
Filename C:\Documents and Settings\Soylent Green\Desktop\New Folder\EAC Files\Liege Lord - Freedom's Rise (2000 Reissue) - 03 - Darktale.wav

Peak level 100.0 %
Track quality 100.0 %
Test CRC A4F85122
Copy CRC A4F85122
Copy OK

Track 4
Filename C:\Documents and Settings\Soylent Green\Desktop\New Folder\EAC Files\Liege Lord - Freedom's Rise (2000 Reissue) - 04 - Amnesty.wav

Peak level 100.0 %
Track quality 99.9 %
Test CRC 7CA58CA2
Copy CRC 7CA58CA2
Copy OK

Track 5
Filename C:\Documents and Settings\Soylent Green\Desktop\New Folder\EAC Files\Liege Lord - Freedom's Rise (2000 Reissue) - 05 - Rage Of Angels.wav

Peak level 100.0 %
Track quality 100.0 %
Test CRC 836E5413
Copy CRC 836E5413
Copy OK

Track 6
Filename C:\Documents and Settings\Soylent Green\Desktop\New Folder\EAC Files\Liege Lord - Freedom's Rise (2000 Reissue) - 06 - Vials Of Wrath.wav

Peak level 100.0 %
Track quality 100.0 %
Test CRC E11ECD52
Copy CRC E11ECD52
Copy OK

Track 7
Filename C:\Documents and Settings\Soylent Green\Desktop\New Folder\EAC Files\Liege Lord - Freedom's Rise (2000 Reissue) - 07 - Warrior's Farewell.wav

Peak level 100.0 %
Track quality 100.0 %
Test CRC 2A0E032F
Copy CRC 2A0E032F
Copy OK

Track 8
Filename C:\Documents and Settings\Soylent Green\Desktop\New Folder\EAC Files\Liege Lord - Freedom's Rise (2000 Reissue) - 08 - For The King.wav

Peak level 100.0 %
Track quality 100.0 %
Test CRC A0880953
Copy CRC A0880953
Copy OK

Track 9
Filename C:\Documents and Settings\Soylent Green\Desktop\New Folder\EAC Files\Liege Lord - Freedom's Rise (2000 Reissue) - 09 - Legionnaire.wav

Peak level 100.0 %
Track quality 100.0 %
Test CRC D146CC55
Copy CRC D146CC55
Copy OK

No errors occured


End of status report

spectrum
Image

_________________


Top
 Profile E-mail  
 
 
PostPosted: 25 Jun 2009 
Пионэръ
User avatar
Joined: 01 Feb 2009
Posts: 44
Lоcаtion: UA
Age: 30
Name: .
Спасиб спасиб спасиб!!!!! :true:
низкий поклон, муза жирная!!! :meloman:

_________________
We're pain, we're steel, a plot of knives, we're Transmaniacon MC.


Top
 Profile  
 
 
PostPosted: 25 Jun 2009 
Почётный металлург
User avatar
Joined: 15 Sep 2007
Posts: 4358
Lоcаtion: Хабаровск
Age: 59
Name: чуть выше
Андрюш, будь ласка, если не в напряг, запости сканы отдельно. Качнул с лоси.мул, а там архив без сканов вообще. Там, кстати, и два других. :true:

_________________
Коль будешь людей ты ослами честить,
тебе человеком меж них не прослыть!
(Саади, персидский поэт, 13в.)


Top
 Profile  
 
 
PostPosted: 25 Jun 2009 
Хиппей (support team)
User avatar
Joined: 30 Jul 2007
Posts: 114007
Lоcаtion: Киев (Kyiv, UA)
Age: 46
Name: Andrey
Sergey wrote:
сканы отдельно

Ну сканами это назвать сложно, всего два каверочка, передний вон уже есть, а второй щас залью...
Кстати, рип здесь потрэковый :pardon:


Image
Image

_________________


Top
 Profile E-mail  
 
 
PostPosted: 25 Jun 2009 
Почётный металлург
User avatar
Joined: 15 Sep 2007
Posts: 4358
Lоcаtion: Хабаровск
Age: 59
Name: чуть выше
Scatterbrain wrote:
Кстати, рип здесь потрэковый

Да, ты ж написал выше. У меня такой же. За бумаги спасибо, выручил. А то уж вообще лыска. Только в папке с мп3 маленький фронтик.
:thanx: :true:

_________________
Коль будешь людей ты ослами честить,
тебе человеком меж них не прослыть!
(Саади, персидский поэт, 13в.)


Top
 Profile  
 
 
PostPosted: 14 Jul 2009 
Труъ
User avatar
Joined: 14 Jul 2009
Posts: 158
Lоcаtion: Hell Is Here
Age: 49
Name: Adriano
Thank You Very Much !! :thanx:


Top
 Profile E-mail  
 
 
PostPosted: 15 Jul 2009 
Power Metal Maniac
User avatar
Joined: 09 Aug 2008
Posts: 6824
Lоcаtion: Москва
Age: 41
Name: Егор
o! Вот этого лося группы как раз не хватало! :thanx:

_________________
Long Live Metal!


Top
 Profile  
 
 
PostPosted: 21 Oct 2014 
5-speed satisfactor
User avatar
Joined: 16 Feb 2009
Posts: 3755
Lоcаtion: New York, USA
Age: 41
Name: Leonid
Это Old Metal Records? Ищу Black Dragon. Помогите.

_________________
Death rules! Metal to all who oppose!


Top
 Profile  
 
 
PostPosted: 21 Oct 2014 
Хиппей (support team)
User avatar
Joined: 30 Jul 2007
Posts: 114007
Lоcаtion: Киев (Kyiv, UA)
Age: 46
Name: Andrey
metaleonid wrote:
Это Old Metal Records?

Угу.
metaleonid wrote:
Ищу Black Dragon. Помогите.

:vic: А у нас тута точно нету? :vic:

_________________


Top
 Profile E-mail  
 
 
PostPosted: 01 Apr 2018 
Я набрал 1000 сообщений!
Joined: 21 Nov 2009
Posts: 1414
Lоcаtion: praga
Age: 49
Name: Сергей
http://dropmefiles.com/PdIL6


Top
 Profile E-mail  
 
 
PostPosted: 01 Apr 2018 
Работнечег
User avatar
Joined: 28 Aug 2007
Posts: 5932
Lоcаtion: г. Москва
Age: 30
Name: Дима
:thanx:


Top
 Profile E-mail  
 
 
PostPosted: 01 Apr 2018 
Я набрал 1000 сообщений!
Joined: 21 Nov 2009
Posts: 1414
Lоcаtion: praga
Age: 49
Name: Сергей
Оригинальное издание от Black Dragon 1985 года.Альбом (как и почти все альбомы выпускаимые этим лэйблом) как то не очень.Все таки самый лучший это альбом 1988 года(который и Андрейки понравился).Ссылка действует 14 дней! :true:


Top
 Profile E-mail  
 
 
PostPosted: 01 Apr 2018 
Хиппей (support team)
User avatar
Joined: 30 Jul 2007
Posts: 114007
Lоcаtion: Киев (Kyiv, UA)
Age: 46
Name: Andrey

:thanx:

_________________


Top
 Profile E-mail  
 
 
PostPosted: 02 Apr 2018 
Рарник и трушник
User avatar
Joined: 25 Dec 2009
Posts: 8725
Lоcаtion: Москва
Age: 54
Name: Виталий
:thanx:


Top
 Profile  
 
 
PostPosted: 05 Jun 2018 
Хиппей (support team)
User avatar
Joined: 30 Jul 2007
Posts: 114007
Lоcаtion: Киев (Kyiv, UA)
Age: 46
Name: Andrey
Liege Lord - 1985 - Freedom's Rise (1996 FR Black Dragon Records BDCD 004) [flac]

Image Image

Image Image

mirror: Giga l Drop l Narod l M-Cloud

Не понял я этот альбом.
Группа тоже помню плохо по 80-м, (название примелькалось, ясное дело, давно, но саму музыку не очень помню) казалось мне наивному, что нарезали они скоростной US Power (типа Savatage/Metal Church с примерно таким же великолепным вокалистом), или что в этом духе, потому слушал с особым интересом - освежить свою память и в тоже время проверить чуйку и.. желание услышать то, чего ожидал.
А вот и не вышло.
Как не гонял альбом утром, ночью веером и днём, всё равно он мне так и не зашёл :(
Музыка хоть местами и скоростная попадается, но явно это всё дело можно назвать Epic Heavy с элементами Power, но вот даже несмотря на то, что сама музыка не выглядит (на слух) устаревшей, но веет от неё какой-то ненастоящей мрачностью и сказками недоделанными.

"Илья Муромец после 33-го года всё же нашёл коня".

Явно нужно для этого понимать полностью лирику песен, интонации и вообще - слушать альбом в то время, когда подобная музыка была модной, что-ли..
Или, как ещё один из вариантов - быть Лёней.
Увы, все три варианта для меня пока пролетели как фанера шведская над Полтавой и её двумя нонешними футбольными командами в УПЛ :vic:

7/10

Оценка чисто поставлена под влиянием (давлением) времени и шоб не побили местные гурманы подобной скучной музыки :crazy:

Image Image

log
Exact Audio Copy V1.0 beta 3 from 29. August 2011

EAC extraction logfile from 13. January 2015, 22:56

Liege Lord / Freedom's Rise

Used drive : PIONEER DVD-RW DVR-221L Adapter: 2 ID: 0

Read mode : Secure
Utilize accurate stream : Yes
Defeat audio cache : Yes
Make use of C2 pointers : No

Read offset correction : 6
Overread into Lead-In and Lead-Out : No
Fill up missing offset samples with silence : Yes
Delete leading and trailing silent blocks : No
Null samples used in CRC calculations : Yes
Used interface : Native Win32 interface for Win NT & 2000

Used output format : Internal WAV Routines
Sample format : 44.100 Hz; 16 Bit; Stereo


TOC of the extracted CD

Track | Start | Length | Start sector | End sector
---------------------------------------------------------
1 | 0:00.00 | 1:04.40 | 0 | 4839
2 | 1:04.40 | 3:12.50 | 4840 | 19289
3 | 4:17.15 | 3:36.30 | 19290 | 35519
4 | 7:53.45 | 3:27.35 | 35520 | 51079
5 | 11:21.05 | 4:19.30 | 51080 | 70534
6 | 15:40.35 | 4:43.10 | 70535 | 91769
7 | 20:23.45 | 4:08.70 | 91770 | 110439
8 | 24:32.40 | 4:28.10 | 110440 | 130549
9 | 29:00.50 | 4:01.05 | 130550 | 148629


Range status and errors

Selected range

Filename D:\Свои Рипы на Линия Жизни\Liege Lord - Freedom's Rise.wav

Peak level 100.0 %
Extraction speed 6.8 X
Range quality 99.9 %
Copy CRC 705AD83D
Copy OK

No errors occurred


AccurateRip summary

Track 1 not present in database
Track 2 not present in database
Track 3 not present in database
Track 4 not present in database
Track 5 not present in database
Track 6 not present in database
Track 7 not present in database
Track 8 not present in database
Track 9 not present in database

None of the tracks are present in the AccurateRip database

End of status report

log
REM GENRE Metal
REM DATE 1985
REM DISCID 7607BD09
REM COMMENT "ExactAudioCopy v1.0b3"
PERFORMER "Liege Lord"
TITLE "Freedom's Rise"
FILE "Liege Lord - Freedom's Rise.flac" WAVE
TRACK 01 AUDIO
TITLE "Prodigy"
PERFORMER "Liege Lord"
FLAGS DCP
INDEX 01 00:00:00
TRACK 02 AUDIO
TITLE "Wielding Iron Fists"
PERFORMER "Liege Lord"
FLAGS DCP
INDEX 01 01:04:40
TRACK 03 AUDIO
TITLE "Darktale"
PERFORMER "Liege Lord"
FLAGS DCP
INDEX 01 04:17:15
TRACK 04 AUDIO
TITLE "Amnesty"
PERFORMER "Liege Lord"
FLAGS DCP
INDEX 01 07:53:45
TRACK 05 AUDIO
TITLE "Rage Of Angels"
PERFORMER "Liege Lord"
FLAGS DCP
INDEX 01 11:21:05
TRACK 06 AUDIO
TITLE "Vials Of Wrath"
PERFORMER "Liege Lord"
FLAGS DCP
INDEX 01 15:40:35
TRACK 07 AUDIO
TITLE "Warriors Farewell"
PERFORMER "Liege Lord"
FLAGS DCP
INDEX 01 20:23:45
TRACK 08 AUDIO
TITLE "For The King"
PERFORMER "Liege Lord"
FLAGS DCP
INDEX 01 24:32:40
TRACK 09 AUDIO
TITLE "Legionnaire"
PERFORMER "Liege Lord"
FLAGS DCP
INDEX 01 29:00:50

_________________


Top
 Profile E-mail  
 
 
PostPosted: 05 Jun 2018 
Хиппей (support team)
User avatar
Joined: 30 Jul 2007
Posts: 114007
Lоcаtion: Киев (Kyiv, UA)
Age: 46
Name: Andrey
sin2 wrote:
Все таки самый лучший это альбом 1988 года(который и Андрейки понравился)

О, Серёг, надеюсь, твои слова и музыка группы до меня дойдут =) :kro:

_________________


Top
 Profile E-mail  
 
 
PostPosted: 05 Jun 2018 
семерых одним ударом
Joined: 18 Aug 2007
Posts: 4154
Lоcаtion: Владивосток
Age: 44
Name: Николай Николаевич
Scatterbrain wrote:
7/10

бей его!!!!


Top
 Profile  
 
 
PostPosted: 08 Jun 2018 
5-speed satisfactor
User avatar
Joined: 16 Feb 2009
Posts: 3755
Lоcаtion: New York, USA
Age: 41
Name: Leonid
Оригинальное издание от Black Dragon 1985 года.Альбом (как и почти все альбомы выпускаимые этим лэйблом) как то не очень.Все таки самый лучший это альбом 1988 года(который и Андрейки понравился).Ссылка действует 14 дней! :true:


Это пиратка, такая же как здесь.

Рипы сделаны разными людьми но ВАВы идентичны. Проверено ЕАСом.

_________________
Death rules! Metal to all who oppose!


Top
 Profile  
 
 
PostPosted: 08 Jun 2018 
Хиппей (support team)
User avatar
Joined: 30 Jul 2007
Posts: 114007
Lоcаtion: Киев (Kyiv, UA)
Age: 46
Name: Andrey
Получается, что мы сами у себя и украли рип? :kro:

_________________


Top
 Profile E-mail  
 
 
PostPosted: 08 Jun 2018 
5-speed satisfactor
User avatar
Joined: 16 Feb 2009
Posts: 3755
Lоcаtion: New York, USA
Age: 41
Name: Leonid
Логи разные, конечные результаты - идентичные.

_________________
Death rules! Metal to all who oppose!


Top
 Profile  
 
Display posts from previous:  Sort by  
Post new topic Reply to topic  [ 22 posts ]  Go to page 1, 2  Next

All times are UTC + 3 hours


Who is online

Users browsing this forum: No registered users and 2 guests


You cannot post new topics in this forum
You cannot reply to topics in this forum
You cannot edit your posts in this forum
You cannot delete your posts in this forum
You cannot post attachments in this forum

Search for:
Яндекс.Метрика
cron
Powered by phpBB © 2000, 2002, 2005, 2007 phpBB Group