\m/ 80's metal \m/

Информационно-аналитический форум "80 см пыли" (In Search We Trust) "У нас никто никуда не спешит"
Me For You - http://me-4u.com
It is currently 21 Sep 2019

All times are UTC + 3 hours

Spoiler
Chat - temporary registration for foreign users (please leave your application here)







Post new topic Reply to topic  [ 13 posts ] 
Author Message
 
PostPosted: 15 Mar 2009 
Анатолий
User avatar
Joined: 18 Oct 2008
Posts: 3531
Lоcаtion: Армавир
Age: 42
Name: Анатолий
Lunacy - "Face No More" - 1992

Image

1. Play your game 02:05
2. Homo sapiens burger 03:10
3. P.M.R.C. 01:25
4. Front page news 02:53
5. Inexcusable misdeed 02:14
6. Brontofröhn (remixed version) 05:14
7. Up in smoke 02:33
8. Merciless pictures 02:50
9. Shithead 04:19
10. Face no more 03:01
11. Exit 02:12

Also released with 2 additional Tracks:
12. Sickness (Remix) (4:42)
13. Hellbound (Remix) (3:38)

Может у кого найдёться сей альбом?


Top
 Profile E-mail  
 
 
PostPosted: 15 Mar 2009 
хард н хэвщик (support team)
User avatar
Joined: 02 Jun 2008
Posts: 16881
Lоcаtion: Н.Новгород
Age: 32
Name: Артем
я помню эту обложку, вроде на форуме уже была темка про группу


Top
 Profile  
 
 
PostPosted: 15 Mar 2009 
Анатолий
User avatar
Joined: 18 Oct 2008
Posts: 3531
Lоcаtion: Армавир
Age: 42
Name: Анатолий
McKagan

Да, есть такое дело. Но там просили mp3. :umnik:


Top
 Profile E-mail  
 
 
PostPosted: 07 Mar 2011 
Работнечег
User avatar
Joined: 28 Aug 2007
Posts: 5995
Lоcаtion: г. Москва
Age: 30
Name: Дима
Толь так и не нашёл?


Top
 Profile E-mail  
 
 
PostPosted: 08 Mar 2011 
Анатолий
User avatar
Joined: 18 Oct 2008
Posts: 3531
Lоcаtion: Армавир
Age: 42
Name: Анатолий
church

Нет... молчание полное... только mp3...


Top
 Profile E-mail  
 
 
PostPosted: 30 Apr 2012 
Работнечег
User avatar
Joined: 28 Aug 2007
Posts: 5995
Lоcаtion: г. Москва
Age: 30
Name: Дима
http://rutracker.org/forum/viewtopic.php?t=4015138
Можно сказать токо появился, спасибо Олегу!


Top
 Profile E-mail  
 
 
PostPosted: 30 Apr 2012 
Прокъмитолист
User avatar
Joined: 12 Aug 2007
Posts: 6605
Lоcаtion: Санктъ-Петербуркъ
Age: 51
Name: Олекъ
church wrote:
токо появился

да не совсем. я его еще перед новым годом зарелизил ;)

_________________
прокъметол - это музыко, от которово есть прок (ы)


Top
 Profile  
 
 
PostPosted: 30 Apr 2012 
Анатолий
User avatar
Joined: 18 Oct 2008
Posts: 3531
Lоcаtion: Армавир
Age: 42
Name: Анатолий
spiralarch

Спасибо большое, Олег! :true: :thanx:


Top
 Profile E-mail  
 
 
PostPosted: 30 Apr 2012 
Прокъмитолист
User avatar
Joined: 12 Aug 2007
Posts: 6605
Lоcаtion: Санктъ-Петербуркъ
Age: 51
Name: Олекъ
я сопсна всю дискографию выложил. так что если оно надо (только имейте в виду, что на последнем альбоме уже прог-павер-трэш :true: ), то дайте знать :losik:

_________________
прокъметол - это музыко, от которово есть прок (ы)


Top
 Profile  
 
 
PostPosted: 02 May 2012 
Хиппей (support team)
User avatar
Joined: 30 Jul 2007
Posts: 114411
Lоcаtion: Киев (Kyiv, UA)
Age: 46
Name: Andrey
Lunacy - 1991 - Face No More [flac]

Image

Genre: Thrash Metal
Location: Switzerland
Format: flac + cue + log + scans
Size: 288 Mb


Line-up:
Nasty - Vocals
René - Guitars
Dirk - Bass
Yvan - Drums

    1. Play Your Game - 02:04
    2. Homo Sapiens Burger - 03:09
    3. P.M.R.C. - 01:24
    4. Front Page News - 02:52
    5. Inexcusable Misdeed - 02:13
    6. Brontofröhn (remix) - 05:13
    7. Up in Smoke - 02:32
    8. Merciless Pictures - 02:49
    9. Shithead - 04:18
    10. Face No More - 03:01
    11. Exit - 02:11
    12. The Sickness (remix) - 04:41
    13. Hellbound (remix) - 03:38

    TPT: 40:05

mirror: MultiUp l Speedy l Narod

Thanx to spiralarch from MMT :thanx:

log
Exact Audio Copy V1.0 beta 1 from 15. November 2010

EAC extraction logfile from 21. December 2011, 21:53

Lunacy / Face No More

Used drive : Optiarc DVD RW AD-7240S Adapter: 2 ID: 0

Read mode : Secure
Utilize accurate stream : Yes
Defeat audio cache : Yes
Make use of C2 pointers : No

Read offset correction : 48
Overread into Lead-In and Lead-Out : No
Fill up missing offset samples with silence : Yes
Delete leading and trailing silent blocks : No
Null samples used in CRC calculations : Yes
Used interface : Native Win32 interface for Win NT & 2000

Used output format : Internal WAV Routines
Sample format : 44.100 Hz; 16 Bit; Stereo


TOC of the extracted CD

Track | Start | Length | Start sector | End sector
---------------------------------------------------------
1 | 0:00.00 | 2:04.70 | 0 | 9369
2 | 2:04.70 | 3:09.70 | 9370 | 23614
3 | 5:14.65 | 1:24.60 | 23615 | 29974
4 | 6:39.50 | 2:52.67 | 29975 | 42941
5 | 9:32.42 | 2:13.50 | 42942 | 52966
6 | 11:46.17 | 5:13.68 | 52967 | 76509
7 | 17:00.10 | 2:32.62 | 76510 | 87971
8 | 19:32.72 | 2:49.60 | 87972 | 100706
9 | 22:22.57 | 4:18.73 | 100707 | 120129
10 | 26:41.55 | 3:01.37 | 120130 | 133741
11 | 29:43.17 | 2:11.58 | 133742 | 143624
12 | 31:55.00 | 4:41.55 | 143625 | 164754
13 | 36:36.55 | 3:38.45 | 164755 | 181149


Range status and errors

Selected range

Filename D:\spiralarch\Lunacy - Face No More.wav

Peak level 89.1 %
Extraction speed 0.3 X
Range quality 100.0 %
Copy CRC C17F3A09
Copy OK

No errors occurred


AccurateRip summary

Track 1 not present in database
Track 2 not present in database
Track 3 not present in database
Track 4 not present in database
Track 5 not present in database
Track 6 not present in database
Track 7 not present in database
Track 8 not present in database
Track 9 not present in database
Track 10 not present in database
Track 11 not present in database
Track 12 not present in database
Track 13 not present in database

None of the tracks are present in the AccurateRip database

End of status report

==== Log checksum F9AC9D43C013BB4071EFF4F5DC214EFFF5FCF62ED098343C9F99C54CBB604108 ====

cue
REM GENRE "Thrash Metal"
REM DATE 1991
REM DISCID 9C096F0D
REM COMMENT "ExactAudioCopy v1.0b1"
PERFORMER "Lunacy"
TITLE "Face No More"
FILE "Lunacy - Face No More.wav" WAVE
TRACK 01 AUDIO
TITLE "Play Your Game"
PERFORMER "Lunacy"
INDEX 01 00:00:00
TRACK 02 AUDIO
TITLE "Homo Sapiens Burger"
PERFORMER "Lunacy"
INDEX 00 02:02:20
INDEX 01 02:04:70
TRACK 03 AUDIO
TITLE "P.M.R.C."
PERFORMER "Lunacy"
INDEX 00 05:12:15
INDEX 01 05:14:65
TRACK 04 AUDIO
TITLE "Front Page News"
PERFORMER "Lunacy"
INDEX 00 06:37:00
INDEX 01 06:39:50
TRACK 05 AUDIO
TITLE "Inexcusable Misdeed"
PERFORMER "Lunacy"
INDEX 00 09:29:67
INDEX 01 09:32:42
TRACK 06 AUDIO
TITLE "Brontofrohn (remix)"
PERFORMER "Lunacy"
INDEX 00 11:43:42
INDEX 01 11:46:17
TRACK 07 AUDIO
TITLE "Up In Smoke"
PERFORMER "Lunacy"
INDEX 00 16:57:35
INDEX 01 17:00:10
TRACK 08 AUDIO
TITLE "Merciless Pictures"
PERFORMER "Lunacy"
INDEX 00 19:30:22
INDEX 01 19:32:72
TRACK 09 AUDIO
TITLE "Shithead"
PERFORMER "Lunacy"
INDEX 00 22:20:07
INDEX 01 22:22:57
TRACK 10 AUDIO
TITLE "Face No More"
PERFORMER "Lunacy"
INDEX 00 26:39:05
INDEX 01 26:41:55
TRACK 11 AUDIO
TITLE "Exit"
PERFORMER "Lunacy"
INDEX 00 29:40:42
INDEX 01 29:43:17
TRACK 12 AUDIO
TITLE "The Sickness (remix)"
PERFORMER "Lunacy"
INDEX 00 31:52:25
INDEX 01 31:55:00
TRACK 13 AUDIO
TITLE "Hellbound (remix)"
PERFORMER "Lunacy"
INDEX 00 36:34:05
INDEX 01 36:36:55

spectrum
Image

_________________


Top
 Profile E-mail  
 
 
PostPosted: 02 May 2012 
Хиппей (support team)
User avatar
Joined: 30 Jul 2007
Posts: 114411
Lоcаtion: Киев (Kyiv, UA)
Age: 46
Name: Andrey
Как-то и этот альбом не особо понравился...
Завтра послушаю более внимательно :vic:

Начали ребята играть довольно техничный, хоть и прямолинейный и мягкий трэш, а затем зачем-то сбились в Crossover. Только не тот, который вышел их Hardocore, а прифанковынный и не всегда уместный. В общем, альбом на любителя. Я пока же его просто не вкурил.

_________________


Top
 Profile E-mail  
 
 
PostPosted: 09 May 2012 
Хиппей (support team)
User avatar
Joined: 30 Jul 2007
Posts: 114411
Lоcаtion: Киев (Kyiv, UA)
Age: 46
Name: Andrey
Так, ну альбом действительно средненький. Кроссовер это. Чистый, второэтапный. То есть, почти трэш с лёгким хардкором и фанком, который в начале 90-х как раз и назвали термином CroossOver.

_________________


Top
 Profile E-mail  
 
 
PostPosted: 18 Jun 2013 
Хиппей (support team)
User avatar
Joined: 30 Jul 2007
Posts: 114411
Lоcаtion: Киев (Kyiv, UA)
Age: 46
Name: Andrey
И еще несколько раз переслушал группу и зачем-то ссылками снова разбросался.
А пусть здесь и побудут, авось Толик забыл скачать :dance:

mirror: F-Bit l Narod

_________________


Top
 Profile E-mail  
 
Display posts from previous:  Sort by  
Post new topic Reply to topic  [ 13 posts ] 

All times are UTC + 3 hours


Who is online

Users browsing this forum: No registered users and 1 guest


You cannot post new topics in this forum
You cannot reply to topics in this forum
You cannot edit your posts in this forum
You cannot delete your posts in this forum
You cannot post attachments in this forum

Search for:
Яндекс.Метрика
cron
Powered by phpBB © 2000, 2002, 2005, 2007 phpBB Group