\m/ 80's metal \m/

Информационно-аналитический форум "80 см пыли" (In Search We Trust) "У нас никто никуда не спешит"
Me For You - http://me-4u.com
It is currently 21 Sep 2019

All times are UTC + 3 hours

Spoiler
Chat - temporary registration for foreign users (please leave your application here)







Post new topic Reply to topic  [ 54 posts ]  Go to page Previous  1, 2, 3
Author Message
 
PostPosted: 20 Feb 2010 
адын фелософъ прокметолу
User avatar
Joined: 22 Oct 2009
Posts: 2788
Lоcаtion: Сочи
Age: 42
Name: Сергей
Я тут позже всех проснулся :au:
Пока до меня дошло, что это группа бывшего вокалиста Pantera , 2 ссылки уже сдохли.
Успел только дерьмо скачать.
Перезалейте пожалуйста 1989 Deaf Gods of Babylon
2004 Cull None!
Мне хотя бы в мп3 лося я запарюсь качать :thanx:

_________________
Я ненавижу гранж и альтернативную музыку


Top
 Profile E-mail  
 
 
PostPosted: 20 Feb 2010 
Old Time Rock`n`Roll
User avatar
Joined: 23 Jun 2008
Posts: 3477
Lоcаtion: г.Ульяновск
Age: 41
Name: Константин
Если не опередят, завтра залью.


Top
 Profile  
 
 
PostPosted: 21 Feb 2010 
хард н хэвщик (support team)
User avatar
Joined: 02 Jun 2008
Posts: 16881
Lоcаtion: Н.Новгород
Age: 32
Name: Артем
2004 Cull None!
http://www.multiupload.com/ZO0AFUAL1U


Top
 Profile  
 
 
PostPosted: 21 Feb 2010 
Old Time Rock`n`Roll
User avatar
Joined: 23 Jun 2008
Posts: 3477
Lоcаtion: г.Ульяновск
Age: 41
Name: Константин
Deaf Gods of Babylon (1989)
320,104 Mb
megaupload-320


Top
 Profile  
 
 
PostPosted: 21 Feb 2011 
Зарегился вот...
Joined: 26 Sep 2010
Posts: 2
Lоcаtion: Angarsk
Name: Sergey
Господа, нельзя ли перезалить в лосслесс альбомы? Спасибо!!!


Top
 Profile E-mail  
 
 
PostPosted: 21 Feb 2011 
Хиппей (support team)
User avatar
Joined: 30 Jul 2007
Posts: 114411
Lоcаtion: Киев (Kyiv, UA)
Age: 46
Name: Andrey
Сергей, пардоньте, а какие именно альбомы нужны?

_________________


Top
 Profile E-mail  
 
 
PostPosted: 01 Mar 2011 
Зарегился вот...
Joined: 26 Sep 2010
Posts: 2
Lоcаtion: Angarsk
Name: Sergey
Любые, лучше первый :thanx:


Top
 Profile E-mail  
 
 
PostPosted: 27 Mar 2011 
Old Time Rock`n`Roll
User avatar
Joined: 23 Jun 2008
Posts: 3477
Lоcаtion: г.Ульяновск
Age: 41
Name: Константин
1989 г. в лосслесс выложен, в хард-роковом доке мула.


Top
 Profile  
 
 
PostPosted: 27 Mar 2011 
хард н хэвщик (support team)
User avatar
Joined: 02 Jun 2008
Posts: 16881
Lоcаtion: Н.Новгород
Age: 32
Name: Артем
oldrocker wrote:
в хард-роковом доке мула

Костя, а ссылочку на этот док можно ? :oops: а то я через гугль не нашел :oops:


Top
 Profile  
 
 
PostPosted: 27 Mar 2011 
Old Time Rock`n`Roll
User avatar
Joined: 23 Jun 2008
Posts: 3477
Lоcаtion: г.Ульяновск
Age: 41
Name: Константин
http://hard-rock.moole.ru/
Если надо в личку могу скинуть прямую ссылку на фолдер.


Top
 Profile  
 
 
PostPosted: 27 Mar 2011 
Хиппей (support team)
User avatar
Joined: 30 Jul 2007
Posts: 114411
Lоcаtion: Киев (Kyiv, UA)
Age: 46
Name: Andrey
oldrocker wrote:
Deaf Gods of Babylon (1989)
320,104 Mb
megaupload-320

sergdigger wrote:
Любые, лучше первый

oldrocker wrote:
1989 г. в лосслесс выложен, в хард-роковом доке мула.

Чего-то я не вкурил - это разве не первый? :oops:
На http://hard-rock.moole.ru есть только этот, который и у нас :vic:

_________________


Top
 Profile E-mail  
 
 
PostPosted: 27 Mar 2011 
Хиппей (support team)
User avatar
Joined: 30 Jul 2007
Posts: 114411
Lоcаtion: Киев (Kyiv, UA)
Age: 46
Name: Andrey
Тьху, понял - у нас в 320 (думал это размер архива) :pardon:

Щас отзеркалю...

_________________


Top
 Profile E-mail  
 
 
PostPosted: 28 Mar 2011 
Хиппей (support team)
User avatar
Joined: 30 Jul 2007
Posts: 114411
Lоcаtion: Киев (Kyiv, UA)
Age: 46
Name: Andrey
Lord Tracy - 1989 - Deaf Gods of Babylon [ape]

1. Out With the Boys - 03:53
2. East Coast Rose - 05:50
3. She's a Bitch - 04:33
4. Barney's Wank/Whatchadoin' - 04:50
5. Chosen Ones - 05:49
6. In Your Eyes - 04:11
7. Rats Motel - 03:39
8. Foolish Love - 03:54
9. She Man Blues - 00:21
10. King of the Nighttime Cowboys - 03:12
11. 3 H. C. - 01:25
12. Submission - 02:35
13. Piranha - 02:09
14. Ivory Lover - 00:24

MultiUp l Narod

Источник: http://hard-rock.moole.ru/288067-lord-t ... bylon.html :thanx:

log
Exact Audio Copy V0.99 prebeta 4 from 23. January 2008

Отчёт EAC об извлечении, выполненном 24. марта 2011, 18:10

Lord Tracy / Deaf Gods Of Babylon

Дисковод: HL-DT-STDVDRAM GSA-H44N Adapter: 0 ID: 0

Режим чтения : Достоверность
Использование точного потока : Да
Отключение кэша аудио : Да
Использование указателей C2 : Нет

Коррекция смещения при чтении : 667
Способность читать области Lead-in и Lead-out : Нет
Заполнение пропущенных сэмплов тишиной : Да
Удаление блоков с тишиной в начале и конце : Нет
При вычислениях CRC использовались нулевые сэмплы : Да
Интерфейс : Встроенный Win32-интерфейс для Win NT/2000

Выходной формат : Monkey's Audio (без потерь)
Выбранный битрейт : Normal Lossless Compression
Качество : Высокий
Добавление ID3-тэга : Да
Утилита сжатия : C:\Program Files\Monkey's Audio\MAC.exe


TOC извлечённого CD

Трек | Старт | Длительность | Начальный сектор | Конечный сектор
---------------------------------------------------------------------
1 | 0:00.00 | 3:54.57 | 0 | 17606
2 | 3:54.57 | 5:50.73 | 17607 | 43929
3 | 9:45.55 | 4:33.47 | 43930 | 64451
4 | 14:19.27 | 0:36.55 | 64452 | 67206
5 | 14:56.07 | 4:16.65 | 67207 | 86471
6 | 19:12.72 | 5:51.73 | 86472 | 112869
7 | 25:04.70 | 4:11.72 | 112870 | 131766
8 | 29:16.67 | 3:41.15 | 131767 | 148356
9 | 32:58.07 | 3:55.30 | 148357 | 166011
10 | 36:53.37 | 0:21.58 | 166012 | 167644
11 | 37:15.20 | 3:12.52 | 167645 | 182096
12 | 40:27.72 | 1:25.50 | 182097 | 188521
13 | 41:53.47 | 2:37.50 | 188522 | 200346
14 | 44:31.22 | 2:10.15 | 200347 | 210111
15 | 46:41.37 | 0:25.35 | 210112 | 212021


Характеристики диапазона извлечения и сообщения об ошибках

Выбранный диапазон

Имя файла D:\Downloads\Музыка\Archiv\подготовка\Lord Tracy - Deaf Gods of Babylon\Lord Tracy - Deaf Gods Of Babylon.wav

Пиковый уровень 100.0 %
Качество диапазона 100.0 %
CRC копии 21F931D2
Копирование... OK

Ошибок не произошло

Конец отчёта

cue
REM DISCID DC0B0A0F
REM COMMENT "ExactAudioCopy v0.99pb4"
PERFORMER "Lord Tracy"
TITLE "Deaf Gods Of Babylon"
FILE "Lord Tracy - Deaf Gods Of Babylon.ape" WAVE
TRACK 01 AUDIO
TITLE "Out With The Boys"
PERFORMER "Lord Tracy"
INDEX 01 00:00:00
TRACK 02 AUDIO
TITLE "East Coast Rose"
PERFORMER "Lord Tracy"
INDEX 00 03:53:55
INDEX 01 03:54:57
TRACK 03 AUDIO
TITLE "She's A Bitch"
PERFORMER "Lord Tracy"
INDEX 01 09:45:55
TRACK 04 AUDIO
TITLE "Barney's Wank"
PERFORMER "Lord Tracy"
INDEX 01 14:19:27
TRACK 05 AUDIO
TITLE "Whatchadoin'"
PERFORMER "Lord Tracy"
INDEX 01 14:56:07
TRACK 06 AUDIO
TITLE "Chosen Ones"
PERFORMER "Lord Tracy"
INDEX 00 19:10:55
INDEX 01 19:12:72
TRACK 07 AUDIO
TITLE "In Your Eyes"
PERFORMER "Lord Tracy"
INDEX 00 25:03:17
INDEX 01 25:04:70
TRACK 08 AUDIO
TITLE "Rats Motel"
PERFORMER "Lord Tracy"
INDEX 01 29:16:67
TRACK 09 AUDIO
TITLE "Foolish Love"
PERFORMER "Lord Tracy"
INDEX 00 32:56:60
INDEX 01 32:58:07
TRACK 10 AUDIO
TITLE "She-Man Blues"
PERFORMER "Lord Tracy"
INDEX 01 36:53:37
TRACK 11 AUDIO
TITLE "King Of The Nighttime Cowboys"
PERFORMER "Lord Tracy"
INDEX 01 37:15:20
TRACK 12 AUDIO
TITLE "3Hc"
PERFORMER "Lord Tracy"
INDEX 01 40:27:72
TRACK 13 AUDIO
TITLE "Submission"
PERFORMER "Lord Tracy"
INDEX 01 41:53:47
TRACK 14 AUDIO
TITLE "Piranha"
PERFORMER "Lord Tracy"
INDEX 00 44:30:05
INDEX 01 44:31:22
TRACK 15 AUDIO
TITLE "Ivory Lover"
PERFORMER "Lord Tracy"
INDEX 01 46:41:37

_________________


Top
 Profile E-mail  
 
 
PostPosted: 28 Mar 2011 
Пионэръ
Joined: 27 Aug 2010
Posts: 10
Lоcаtion: England
Name: Ken
спасибо за lossless


Top
 Profile E-mail  
 
Display posts from previous:  Sort by  
Post new topic Reply to topic  [ 54 posts ]  Go to page Previous  1, 2, 3

All times are UTC + 3 hours


Who is online

Users browsing this forum: No registered users and 2 guests


You cannot post new topics in this forum
You cannot reply to topics in this forum
You cannot edit your posts in this forum
You cannot delete your posts in this forum
You cannot post attachments in this forum

Search for:
Яндекс.Метрика
Powered by phpBB © 2000, 2002, 2005, 2007 phpBB Group