\m/ 80's metal \m/

Информационно-аналитический форум "80 см пыли" (In Search We Trust) "У нас никто никуда не спешит"
Me For You - http://me-4u.com
It is currently 20 Aug 2019

All times are UTC + 3 hours

Spoiler
Chat - temporary registration for foreign users (please leave your application here)







Post new topic Reply to topic  [ 54 posts ]  Go to page Previous  1, 2, 3
Author Message
 
PostPosted: 17 Oct 2008 
Труъ
Joined: 23 Jun 2008
Posts: 106
Lоcаtion: Кострома
Age: 34
Name: .
Говорят, добротный трэш играют эти канадцы...
Так что ищу их единственный полноформатник 1994 года Ashes to Ashes

Image

1. My Rebellion (04:38)
2. The Answer (03:21)
3. One Black Hole (03:05)
4. Frozen Memories (04:25)
5. Messenger of Death (02:51)
6. The Achievement (05:29)
7. Necrophalic (05:14)
8. The Furniture (04:47)
9. La Morte (03:01)

_________________
Thrash Expert


Top
 Profile E-mail  
 
 
PostPosted: 30 May 2014 
Хиппей (support team)
User avatar
Joined: 30 Jul 2007
Posts: 114007
Lоcаtion: Киев (Kyiv, UA)
Age: 46
Name: Andrey
Даш, спасибке :thanx:

mirror: M-Cloud

_________________


Top
 Profile E-mail  
 
 
PostPosted: 30 May 2014 
Работнечег
User avatar
Joined: 28 Aug 2007
Posts: 5932
Lоcаtion: г. Москва
Age: 30
Name: Дима
Даш, спасибки за демку!
2000 год есть на CDr, выложу по возможности!


Top
 Profile E-mail  
 
 
PostPosted: 30 May 2014 
Хиппей (support team)
User avatar
Joined: 30 Jul 2007
Posts: 114007
Lоcаtion: Киев (Kyiv, UA)
Age: 46
Name: Andrey
Слушал миник туда, сюда, обратно и снова сюда - всё равно фигня какая-то, а не музыка :vic:

_________________


Top
 Profile E-mail  
 
 
PostPosted: 24 Aug 2014 
Работнечег
User avatar
Joined: 28 Aug 2007
Posts: 5932
Lоcаtion: г. Москва
Age: 30
Name: Дима
Last Breath - Bleed For Me (Demo) Lim. Ed. (2000)

Image

Label: Self-Released
Genre: Heavy/Thrash Metal
Country: Canada
Format: Flac + Log + Cue + Covers
Size: 174 Mb

Line-Up:
Patrice Moore - Guitars, Vocals
David Moore - Drums
Alexandre Lesiège - Bass
Raphaël Dufresne - Guitars


Tracklist:
1. Vita Detestabilis 04:49
2. Bleed For Me 05:42
3. Dehumanized 03:51
4. Vampire Hunters (Bonus) 03:13
5. More Blood (Part I) (Bonus) 03:03
6. Frozen Memories (Bonus) 04:54

LOG
Exact Audio Copy V0.99 prebeta 5 from 4. May 2009

EAC extraction logfile from 24. August 2014, 12:51

Last Breath / Bleed For Me (Demo)

Used drive : PIONEER DVD-RW DVR-116D Adapter: 0 ID: 0

Read mode : Secure
Utilize accurate stream : Yes
Defeat audio cache : Yes
Make use of C2 pointers : No

Read offset correction : 96
Overread into Lead-In and Lead-Out : No
Fill up missing offset samples with silence : Yes
Delete leading and trailing silent blocks : No
Null samples used in CRC calculations : Yes
Used interface : Native Win32 interface for Win NT & 2000

Used output format : User Defined Encoder
Selected bitrate : 32 kBit/s
Quality : High
Add ID3 tag : No
Command line compressor : C:\Program Files\Exact Audio Copy\Flac\flac.exe
Additional command line options : -6 -V %s


TOC of the extracted CD

Track | Start | Length | Start sector | End sector
---------------------------------------------------------
1 | 0:00.00 | 4:49.04 | 0 | 21678
2 | 4:49.04 | 5:42.19 | 21679 | 47347
3 | 10:31.23 | 3:50.61 | 47348 | 64658
4 | 14:22.09 | 3:12.41 | 64659 | 79099
5 | 17:34.50 | 3:03.12 | 79100 | 92836
6 | 20:37.62 | 4:54.37 | 92837 | 114923


Range status and errors

Selected range

Filename D:\Музыка\Lossless\Last Breath - Bleed For Me (Demo) (2000)\Last Breath - Bleed For Me (Demo).wav

Peak level 100.0 %
Range quality 100.0 %
Copy CRC B67D22ED
Copy OK

No errors occurred


AccurateRip summary

Track 1 not present in database
Track 2 not present in database
Track 3 not present in database
Track 4 not present in database
Track 5 not present in database
Track 6 not present in database

None of the tracks are present in the AccurateRip database

End of status report

CUE
REM GENRE "Heavy/Thrash Metal"
REM DATE 2000
REM DISCID 4705FC06
REM COMMENT "ExactAudioCopy v0.99pb5"
PERFORMER "Last Breath"
TITLE "Bleed For Me (Demo)"
FILE "Last Breath - Bleed For Me (Demo).flac" WAVE
TRACK 01 AUDIO
TITLE "Vita Detestabilis"
PERFORMER "Last Breath"
INDEX 01 00:00:00
TRACK 02 AUDIO
TITLE "Bleed For Me"
PERFORMER "Last Breath"
INDEX 01 04:49:04
TRACK 03 AUDIO
TITLE "Dehumanized"
PERFORMER "Last Breath"
INDEX 01 10:31:23
TRACK 04 AUDIO
TITLE "Vampire Hunters"
PERFORMER "Last Breath"
INDEX 01 14:22:09
TRACK 05 AUDIO
TITLE "More Blood (Part I)"
PERFORMER "Last Breath"
INDEX 01 17:34:50
TRACK 06 AUDIO
TITLE "Frozen Memories"
PERFORMER "Last Breath"
INDEX 01 20:37:62


FLAC

Первые три песни выдержаны в примерно одинаковом стиле с довольно агрессивным вокалом, довольно средне. Больше всего понравилась самая тяжелая Dehumanized. Первый бонус - скучный инструментал со скрипкой, совершенно не понравилось, затем идет довольно средняя баллада опять-таки с добавлением скрипки с непривычным для группы совсем чистым вокалом. Ну и заканчивает эту демку очередной инструментал, который оставил очень приятное впечатление. Кстати наверное подойдет в темку про восточные мелодии. Итого демка больше для фанатов группы, бонусы разительно отличаются по стилю от первых трех песен группы. Но тем не менее раритет :crazy:
P.S. Вот еще 2 темы про группу на форуме, возможно стоит что-то с чем-то совместить :fingal:
viewtopic.php?f=185&t=12088
viewtopic.php?f=117&t=1794&start=20


Top
 Profile E-mail  
 
 
PostPosted: 24 Aug 2014 
Прокъмитолист
User avatar
Joined: 12 Aug 2007
Posts: 6590
Lоcаtion: Санктъ-Петербуркъ
Age: 51
Name: Олекъ
надо забрать. спасибо, Дим :thanx:

_________________
прокъметол - это музыко, от которово есть прок (ы)


Top
 Profile  
 
 
PostPosted: 24 Aug 2014 
Хиппей (support team)
User avatar
Joined: 30 Jul 2007
Posts: 114007
Lоcаtion: Киев (Kyiv, UA)
Age: 46
Name: Andrey
:thanx:

mirror: M-Cloud l Narod

Сначала прочёл название альбома как Beer for Me :crazy:

_________________


Top
 Profile E-mail  
 
 
PostPosted: 24 Aug 2014 
Хиппей (support team)
User avatar
Joined: 30 Jul 2007
Posts: 114007
Lоcаtion: Киев (Kyiv, UA)
Age: 46
Name: Andrey
church wrote:
возможно стоит что-то с чем-то совместить

Давай всё в одну? :dance:

_________________


Top
 Profile E-mail  
 
 
PostPosted: 24 Aug 2014 
Работнечег
User avatar
Joined: 28 Aug 2007
Posts: 5932
Lоcаtion: г. Москва
Age: 30
Name: Дима
Давай)) тут не так много получится)


Top
 Profile E-mail  
 
 
PostPosted: 24 Aug 2014 
Хиппей (support team)
User avatar
Joined: 30 Jul 2007
Posts: 114007
Lоcаtion: Киев (Kyiv, UA)
Age: 46
Name: Andrey
Слепил. Вроде всё... :lloo:

_________________


Top
 Profile E-mail  
 
 
PostPosted: 25 Aug 2014 
Работнечег
User avatar
Joined: 28 Aug 2007
Posts: 5932
Lоcаtion: г. Москва
Age: 30
Name: Дима
Всё отлично получилось :true:


Top
 Profile E-mail  
 
 
PostPosted: 25 Aug 2014 
Хиппей (support team)
User avatar
Joined: 30 Jul 2007
Posts: 114007
Lоcаtion: Киев (Kyiv, UA)
Age: 46
Name: Andrey
church wrote:
Last Breath - Bleed For Me (Demo) Lim. Ed. (2000)

А вот понравилась демка. Эдакий про-Сепультурный и слегка грувастый трэшачок :true:
зы. Инструменталку "восточную" забрал куда надо :thanx:

_________________


Top
 Profile E-mail  
 
 
PostPosted: 25 Aug 2014 
Хиппей (support team)
User avatar
Joined: 30 Jul 2007
Posts: 114007
Lоcаtion: Киев (Kyiv, UA)
Age: 46
Name: Andrey
Кстати, на полном альбоме она уже с вокалом и переработана до неузнаваемости :shok:




_________________


Top
 Profile E-mail  
 
 
PostPosted: 25 Aug 2014 
Работнечег
User avatar
Joined: 28 Aug 2007
Posts: 5932
Lоcаtion: г. Москва
Age: 30
Name: Дима
Ну альбом-то 1994 года, а демка 2000, поэтому тут так и не скажешь какой вариант самый первый был) Но песня да, ничего общего нет почти)


Top
 Profile E-mail  
 
 
PostPosted: 26 Aug 2014 
Хиппей (support team)
User avatar
Joined: 30 Jul 2007
Posts: 114007
Lоcаtion: Киев (Kyiv, UA)
Age: 46
Name: Andrey
church wrote:
Ну альбом-то 1994 года, а демка 2000

Опа, не успел этого заметить :shok: Пасиба за инфу =) :thanx:

_________________


Top
 Profile E-mail  
 
Display posts from previous:  Sort by  
Post new topic Reply to topic  [ 54 posts ]  Go to page Previous  1, 2, 3

All times are UTC + 3 hours


Who is online

Users browsing this forum: No registered users and 2 guests


You cannot post new topics in this forum
You cannot reply to topics in this forum
You cannot edit your posts in this forum
You cannot delete your posts in this forum
You cannot post attachments in this forum

Search for:
Яндекс.Метрика
Powered by phpBB © 2000, 2002, 2005, 2007 phpBB Group