\m/ 80's metal \m/

Информационно-аналитический форум "80 см пыли" (In Search We Trust) "У нас никто никуда не спешит"
Me For You - http://me-4u.com
It is currently 14 Dec 2019

All times are UTC + 3 hours

Spoiler
Chat - temporary registration for foreign users (please leave your application here)







Post new topic Reply to topic  [ 54 posts ]  Go to page Previous  1, 2, 3  Next
Author Message
 
PostPosted: 17 Oct 2008 
Труъ
Joined: 23 Jun 2008
Posts: 106
Lоcаtion: Кострома
Age: 34
Name: .
Говорят, добротный трэш играют эти канадцы...
Так что ищу их единственный полноформатник 1994 года Ashes to Ashes

Image

1. My Rebellion (04:38)
2. The Answer (03:21)
3. One Black Hole (03:05)
4. Frozen Memories (04:25)
5. Messenger of Death (02:51)
6. The Achievement (05:29)
7. Necrophalic (05:14)
8. The Furniture (04:47)
9. La Morte (03:01)

_________________
Thrash Expert


Top
 Profile E-mail  
 
 
PostPosted: 23 May 2012 
Хиппей (support team)
User avatar
Joined: 30 Jul 2007
Posts: 116132
Lоcаtion: Киев (Kyiv, UA)
Age: 46
Name: Andrey
Ой, а перезалить там никто не попросит? :oops:

_________________


Top
 Profile E-mail  
 
 
PostPosted: 24 Jan 2014 
Работнечег
User avatar
Joined: 28 Aug 2007
Posts: 6086
Lоcаtion: г. Москва
Age: 30
Name: Дима
Last Breath - Ashes To Ashes (1994)

Image

Label: Self-Released
Genre: Thrash Metal
Country: Canada
Format: Flac + Log + Cue + Covers
Size: 246 Mb

Line-Up:
Patrice Moore - Guitars, Vocals
David Moore - Drums
Alexandre Lesiège - Bass
Raphaël Dufresne - Guitars


Tracklist:
1. My Rebellion 04:38
2. The Answer 03:21
3. One Black Hole 03:05
4. Frozen Memories 04:25
5. Messenger of Death 02:51
6. The Achievement 05:29
7. Necrophalic 05:14
8. The Furniture 04:47
9. La Morte 03:01

LOG
Exact Audio Copy V0.99 prebeta 5 from 4. May 2009

EAC extraction logfile from 24. January 2014, 21:41

Last Breath / Ashes To Ashes

Used drive : PIONEER DVD-RW DVR-116D Adapter: 0 ID: 0

Read mode : Secure
Utilize accurate stream : Yes
Defeat audio cache : Yes
Make use of C2 pointers : No

Read offset correction : 96
Overread into Lead-In and Lead-Out : No
Fill up missing offset samples with silence : Yes
Delete leading and trailing silent blocks : No
Null samples used in CRC calculations : Yes
Used interface : Native Win32 interface for Win NT & 2000

Used output format : User Defined Encoder
Selected bitrate : 32 kBit/s
Quality : High
Add ID3 tag : No
Command line compressor : C:\Program Files\Exact Audio Copy\Flac\flac.exe
Additional command line options : -6 -V %s


TOC of the extracted CD

Track | Start | Length | Start sector | End sector
---------------------------------------------------------
1 | 0:00.00 | 4:38.45 | 0 | 20894
2 | 4:38.45 | 3:21.55 | 20895 | 36024
3 | 8:00.25 | 3:06.22 | 36025 | 49996
4 | 11:06.47 | 4:24.38 | 49997 | 69834
5 | 15:31.10 | 2:52.27 | 69835 | 82761
6 | 18:23.37 | 5:30.20 | 82762 | 107531
7 | 23:53.57 | 5:14.45 | 107532 | 131126
8 | 29:08.27 | 4:47.48 | 131127 | 152699
9 | 33:56.00 | 3:01.05 | 152700 | 166279


Range status and errors

Selected range

Filename D:\Музыка\Lossless\Last Breath - Ashes To Ashes (1994)\Last Breath - Ashes To Ashes.wav

Peak level 100.0 %
Range quality 100.0 %
Copy CRC FEB179DF
Copy OK

No errors occurred


AccurateRip summary

Track 1 not present in database
Track 2 not present in database
Track 3 not present in database
Track 4 not present in database
Track 5 not present in database
Track 6 not present in database
Track 7 not present in database
Track 8 not present in database
Track 9 not present in database

None of the tracks are present in the AccurateRip database

End of status report

CUE
REM GENRE "Thrash Metal"
REM DATE 1994
REM DISCID 6B08A909
REM COMMENT "ExactAudioCopy v0.99pb5"
PERFORMER "Last Breath"
TITLE "Ashes To Ashes"
FILE "Last Breath - Ashes To Ashes.flac" WAVE
TRACK 01 AUDIO
TITLE "My Rebellion"
PERFORMER "Last Breath"
INDEX 01 00:00:00
TRACK 02 AUDIO
TITLE "The Answer"
PERFORMER "Last Breath"
INDEX 00 04:38:16
INDEX 01 04:38:45
TRACK 03 AUDIO
TITLE "One Black Hole"
PERFORMER "Last Breath"
INDEX 01 08:00:25
TRACK 04 AUDIO
TITLE "Frozen Memories"
PERFORMER "Last Breath"
INDEX 00 11:06:05
INDEX 01 11:06:47
TRACK 05 AUDIO
TITLE "Messenger of Death"
PERFORMER "Last Breath"
INDEX 01 15:31:10
TRACK 06 AUDIO
TITLE "The Achievement"
PERFORMER "Last Breath"
INDEX 01 18:23:37
TRACK 07 AUDIO
TITLE "Necrophalic"
PERFORMER "Last Breath"
INDEX 01 23:53:57
TRACK 08 AUDIO
TITLE "The Furniture"
PERFORMER "Last Breath"
INDEX 01 29:08:27
TRACK 09 AUDIO
TITLE "La Morte"
PERFORMER "Last Breath"
INDEX 00 33:55:06
INDEX 01 33:56:00


FLAC


Top
 Profile E-mail  
 
 
PostPosted: 24 Jan 2014 
Хиппей (support team)
User avatar
Joined: 30 Jul 2007
Posts: 116132
Lоcаtion: Киев (Kyiv, UA)
Age: 46
Name: Andrey
:thanx:

mirror: Narod l M-Cloud

_________________


Top
 Profile E-mail  
 
 
PostPosted: 24 Jan 2014 
\m/ 80 см сала \m/
User avatar
Joined: 12 Mar 2012
Posts: 2590
Age: 26
Name: Nick
:thanx:

_________________
1990 AUROPHON BRAINSTORM (Germany) - lossless
1994 MAUSOLEUM CLASSIX (Belgium-Germany) - lossless
1998 VA - GRIM HARVEST - Complete Metal Massacre Volumes I-XII


Top
 Profile  
 
 
PostPosted: 24 Jan 2014 
\m/ 80 см сала \m/
User avatar
Joined: 12 Mar 2012
Posts: 2590
Age: 26
Name: Nick
Шо ж ты делаешь, Дима - я взял за привычку не пропусть твои релизы, и теперь банально некуда сохранять, и без того маленький винт забит под завязку :benya:

_________________
1990 AUROPHON BRAINSTORM (Germany) - lossless
1994 MAUSOLEUM CLASSIX (Belgium-Germany) - lossless
1998 VA - GRIM HARVEST - Complete Metal Massacre Volumes I-XII


Top
 Profile  
 
 
PostPosted: 24 Jan 2014 
Работнечег
User avatar
Joined: 28 Aug 2007
Posts: 6086
Lоcаtion: г. Москва
Age: 30
Name: Дима
Шо ж ты делаешь, Дима - я взял за привычку не пропусть твои релизы, и теперь банально некуда сохранять, и без того маленький винт забит под завязку :benya:

ну не все ведь релизы удачные)) этот альбом правда тебе должен понравится, довольно злой трэшак, на четверочку сыграно) возможно, понравится админу :al:


Top
 Profile E-mail  
 
 
PostPosted: 24 Jan 2014 
Хиппей (support team)
User avatar
Joined: 30 Jul 2007
Posts: 116132
Lоcаtion: Киев (Kyiv, UA)
Age: 46
Name: Andrey
Шо за админ? :lloo:

Мне кажись эта группа раньше нравилась :vic:

_________________


Top
 Profile E-mail  
 
 
PostPosted: 24 Jan 2014 
спирт 100%
User avatar
Joined: 22 Sep 2008
Posts: 4501
Age: 48
Name: Саня
:thanx: Спасибо Дим! тоже послушаю


Top
 Profile  
 
 
PostPosted: 25 Jan 2014 
Персональный статус
User avatar
Joined: 04 Mar 2012
Posts: 239
Lоcаtion: Саратов
Name: Василий
:thanx:


Top
 Profile E-mail  
 
 
PostPosted: 25 Jan 2014 
Генеральный thrasher
User avatar
Joined: 03 Oct 2008
Posts: 3743
Lоcаtion: Ханты-Мансийский АО
Age: 44
Name: Сергей
Спасибо,Дим!


Top
 Profile  
 
 
PostPosted: 25 Jan 2014 
Alive Again
User avatar
Joined: 17 Dec 2008
Posts: 4750
Lоcаtion: Курск Воронеж Оскол
Age: 45
Name: Дмитрий
:thanx:


Top
 Profile E-mail  
 
 
PostPosted: 25 Jan 2014 
Дежурный по КУПу
User avatar
Joined: 17 Aug 2007
Posts: 5871
Age: 51
Name: Ге
:thanx:

_________________
http://jp-mania.ru/
http://jp-tourdates.ucoz.ru/


Top
 Profile  
 
 
PostPosted: 25 Jan 2014 
А может смените мне статус?..
User avatar
Joined: 24 Sep 2012
Posts: 856
Lоcаtion: Нижегородская обл.
Age: 49
Name: Вячеслав
Спасибо, будем слушать! :meloman:

_________________
Image


Top
 Profile E-mail  
 
 
PostPosted: 25 Jan 2014 
А может смените мне статус?..
User avatar
Joined: 28 Jul 2008
Posts: 993
Lоcаtion: Украина---Днепропетровск
Age: 45
Name: Александр
И моя благодарность :true:

_________________
Музыка в которой я растворяюсь многих угнетает......


Top
 Profile  
 
 
PostPosted: 26 Jan 2014 
Прокъмитолист
User avatar
Joined: 12 Aug 2007
Posts: 6653
Lоcаtion: Санктъ-Петербуркъ
Age: 52
Name: Олекъ
Димка, спасибо! :true:

_________________
прокъметол - это музыко, от которово есть прок (ы)


Top
 Profile  
 
 
PostPosted: 26 Jan 2014 
консэрваторъ
User avatar
Joined: 11 Aug 2007
Posts: 17501
Lоcаtion: Псков
Age: 45
Name: Сергей
А чего у них тётка в гробу делает?.. И кто это такая?..

Image

_________________
THRASH 'EM ALL


Top
 Profile E-mail  
 
 
PostPosted: 26 Jan 2014 
Хиппей (support team)
User avatar
Joined: 30 Jul 2007
Posts: 116132
Lоcаtion: Киев (Kyiv, UA)
Age: 46
Name: Andrey
Золушка вроде :lloo:

_________________


Top
 Profile E-mail  
 
 
PostPosted: 29 Jan 2014 
\m/ 80 см сала \m/
User avatar
Joined: 12 Mar 2012
Posts: 2590
Age: 26
Name: Nick
Действительно понравилось - злобный, местами весьма мелодичный трэш, обладающий некой изюминкой - вот есть что-то такое среди канадских тяжей :true:

_________________
1990 AUROPHON BRAINSTORM (Germany) - lossless
1994 MAUSOLEUM CLASSIX (Belgium-Germany) - lossless
1998 VA - GRIM HARVEST - Complete Metal Massacre Volumes I-XII


Top
 Profile  
 
 
PostPosted: 30 Jan 2014 
Хиппей (support team)
User avatar
Joined: 30 Jul 2007
Posts: 116132
Lоcаtion: Киев (Kyiv, UA)
Age: 46
Name: Andrey
Everhard wrote:
вот есть что-то такое среди канадских тяжей

Ага, какие-то они атипичные и непостоянные :dance:

_________________


Top
 Profile E-mail  
 
 
PostPosted: 30 May 2014 
Rara avis
User avatar
Joined: 27 Jan 2009
Posts: 5316
Name: .
Last Breath - 1991 - Dimension O.D.
http://yadi.sk/d/eQFp_No7RgdxU


Top
 Profile E-mail  
 
Display posts from previous:  Sort by  
Post new topic Reply to topic  [ 54 posts ]  Go to page Previous  1, 2, 3  Next

All times are UTC + 3 hours


Who is online

Users browsing this forum: No registered users and 1 guest


You cannot post new topics in this forum
You cannot reply to topics in this forum
You cannot edit your posts in this forum
You cannot delete your posts in this forum
You cannot post attachments in this forum

Search for:
Яндекс.Метрика
Powered by phpBB © 2000, 2002, 2005, 2007 phpBB Group