\m/ 80's metal \m/

Информационно-аналитический форум "80 см пыли" (In Search We Trust) "У нас никто никуда не спешит"
Me For You - http://me-4u.com
It is currently 20 Aug 2019

All times are UTC + 3 hours

Spoiler
Chat - temporary registration for foreign users (please leave your application here)







Post new topic Reply to topic  [ 32 posts ]  Go to page Previous  1, 2
Author Message
 
PostPosted: 22 Jul 2018 
5-speed satisfactor
User avatar
Joined: 16 Feb 2009
Posts: 3755
Lоcаtion: New York, USA
Age: 41
Name: Leonid
Image Image

Будет потреково этот. А вы пока оформите.

До 29 июля.

https://we.tl/3MVliWLK5o

Tracklist

01 You And Me - 4:13
02 Living Death - 4:07
03 Night Light - 5:45
04 My Victim - 4:15
05 Labyrinth - 3:15
06 Heavy Metal Hurricane - 3:48
07 Hellpike - 4:07
08 Riding A Virgin - 4:03
09 Vengeance Of Hell - 5:14


log
Exact Audio Copy V0.99 prebeta 5 from 4. May 2009

EAC extraction logfile from 12. March 2013, 22:39

Living Death / Vengeance Of Hell

Used drive : PLEXTOR DVDR PX-760A Adapter: 1 ID: 0

Read mode : Secure
Utilize accurate stream : Yes
Defeat audio cache : Yes
Make use of C2 pointers : Yes

Read offset correction : 30
Overread into Lead-In and Lead-Out : Yes
Fill up missing offset samples with silence : Yes
Delete leading and trailing silent blocks : No
Null samples used in CRC calculations : Yes
Used interface : Installed external ASPI interface

Used output format : Internal WAV Routines
Sample format : 44.100 Hz; 16 Bit; Stereo


TOC of the extracted CD

Track | Start | Length | Start sector | End sector
---------------------------------------------------------
1 | 0:00.00 | 4:13.35 | 0 | 19009
2 | 4:13.35 | 3:53.02 | 19010 | 36486
3 | 8:06.37 | 5:53.55 | 36487 | 63016
4 | 14:00.17 | 4:17.40 | 63017 | 82331
5 | 18:17.57 | 3:18.50 | 82332 | 97231
6 | 21:36.32 | 3:46.50 | 97232 | 114231
7 | 25:23.07 | 4:08.58 | 114232 | 132889
8 | 29:31.65 | 4:04.10 | 132890 | 151199
9 | 33:36.00 | 5:18.07 | 151200 | 175056


Range status and errors

Selected range

Filename O:\FLAC\Living Death\Vengeance Of Hell\Living Death - Vengeance Of Hell.wav

Peak level 99.1 %
Range quality 100.0 %
Copy CRC 9610FFBA
Copy OK

No errors occurred

End of status report

cue
REM GENRE "Heavy Metal"
REM DATE 1984
REM DISCID 81091E09
REM COMMENT "5 frames from 6 to 7."
REM COMMENT "ExactAudioCopy v0.99pb5"
PERFORMER "Living Death"
TITLE "Vengeance Of Hell"
FILE "01. You And Me.wav" WAVE
TRACK 01 AUDIO
TITLE "You And Me"
PERFORMER "Living Death"
INDEX 01 00:00:00
FILE "02. Living Death.wav" WAVE
TRACK 02 AUDIO
TITLE "Living Death"
PERFORMER "Living Death"
INDEX 00 00:00:00
INDEX 01 00:01:13
FILE "03. Night Light.wav" WAVE
TRACK 03 AUDIO
TITLE "Night Light"
PERFORMER "Living Death"
INDEX 00 00:00:00
INDEX 01 00:02:62
FILE "04. My Victim.wav" WAVE
TRACK 04 AUDIO
TITLE "My Victim"
PERFORMER "Living Death"
INDEX 00 00:00:00
INDEX 01 00:02:10
FILE "05. Labyrinth.wav" WAVE
TRACK 05 AUDIO
TITLE "Labyrinth"
PERFORMER "Living Death"
INDEX 00 00:00:00
INDEX 01 00:01:57
FILE "06. Heavy Metal Hurricane.wav" WAVE
TRACK 06 AUDIO
TITLE "Heavy Metal Hurricane"
PERFORMER "Living Death"
INDEX 00 00:00:00
INDEX 01 00:01:17
FILE "07. Hellpike.wav" WAVE
TRACK 07 AUDIO
TITLE "Hellpike"
PERFORMER "Living Death"
INDEX 00 00:00:00
INDEX 01 00:00:65
FILE "08. Riding A Virgin.wav" WAVE
TRACK 08 AUDIO
TITLE "Riding A Virgin"
PERFORMER "Living Death"
INDEX 00 00:00:00
INDEX 01 00:02:23
FILE "09. Vengeance Of Hell.wav" WAVE
TRACK 09 AUDIO
TITLE "Vengeance Of Hell"
PERFORMER "Living Death"
INDEX 00 00:00:00
INDEX 01 00:02:08


Image Image

_________________
Death rules! Metal to all who oppose!


Last edited by Scatterbrain on 27 Jul 2018, edited 4 times in total.
Тема адаптирована под шаблон форума


Top
 Profile  
 
 
PostPosted: 27 Jul 2018 
Хиппей (support team)
User avatar
Joined: 30 Jul 2007
Posts: 114007
Lоcаtion: Киев (Kyiv, UA)
Age: 46
Name: Andrey
Да я не против, Лёнь.
Просто не могу понять - у нас уже был здесь рип того альбома? :scratch:

_________________


Top
 Profile E-mail  
 
 
PostPosted: 27 Jul 2018 
5-speed satisfactor
User avatar
Joined: 16 Feb 2009
Posts: 3755
Lоcаtion: New York, USA
Age: 41
Name: Leonid
Не было. Была перезапись с другим бабабанщиком.

_________________
Death rules! Metal to all who oppose!


Top
 Profile  
 
 
PostPosted: 27 Jul 2018 
Хиппей (support team)
User avatar
Joined: 30 Jul 2007
Posts: 114007
Lоcаtion: Киев (Kyiv, UA)
Age: 46
Name: Andrey
Ого. А сколько всего барабанщиков на том альбоме участие принимали? :(

_________________


Top
 Profile E-mail  
 
 
PostPosted: 27 Jul 2018 
Персональный статус
Joined: 05 Feb 2011
Posts: 349
Lоcаtion: Russia, Novosibirsk
Age: 45
Name: Андрей
Была перезапись с другим бабабанщиком.

То не перезапись была, а пересведение. Абсолютно тот же бабанщик, но опосля ремикса жырно зазвучал :meloman:


Top
 Profile E-mail  
 
 
PostPosted: 27 Jul 2018 
5-speed satisfactor
User avatar
Joined: 16 Feb 2009
Posts: 3755
Lоcаtion: New York, USA
Age: 41
Name: Leonid
Была перезапись с другим бабабанщиком.

То не перезапись была, а пересведение. Абсолютно тот же бабанщик, но опосля ремикса жырно зазвучал :meloman:


Барабанщил другой. Да и вся запись по другому звучит.

_________________
Death rules! Metal to all who oppose!


Top
 Profile  
 
 
PostPosted: 27 Jul 2018 
Персональный статус
Joined: 05 Feb 2011
Posts: 349
Lоcаtion: Russia, Novosibirsk
Age: 45
Name: Андрей
Барабанщил другой. Да и вся запись по другому звучит.

Имя другого интересно бы ;)
Звучит, естественно, по другому - благодаря пересведению.


Top
 Profile E-mail  
 
 
PostPosted: 27 Jul 2018 
5-speed satisfactor
User avatar
Joined: 16 Feb 2009
Posts: 3755
Lоcаtion: New York, USA
Age: 41
Name: Leonid
Eric - original
Andreas Oberhoff - new remix

_________________
Death rules! Metal to all who oppose!


Top
 Profile  
 
 
PostPosted: 27 Jul 2018 
Персональный статус
User avatar
Joined: 11 May 2011
Posts: 420
Lоcаtion: Omsk
Age: 29
Name: Alexander
А его разве не потому перезаписывали, что оригинал не устраивал? Вообще мне ситуация с этим альбомом Obsessed by Cruelty напомнила. Перезаписанные варианты хоть и звучат лучше, на дисках всё равно в итоге оригиналы оказались.

_________________
Enigma, unholy, ungodly, commander of the regeneration
Insidious and caught, implored by disgrace
Inhumation... The burial of man
Confession... Unify all evil


Top
 Profile E-mail  
 
 
PostPosted: 27 Jul 2018 
5-speed satisfactor
User avatar
Joined: 16 Feb 2009
Posts: 3755
Lоcаtion: New York, USA
Age: 41
Name: Leonid
Ну как сказать. Первоначальный вариант, который как раз я и выложил в этой ветке, - уё6ищный. Тем не менее все переиздания как раз с него. А new remix никогда не переиздавался, разве что пару лет назад ХРРом как бонус к оригиналу.

_________________
Death rules! Metal to all who oppose!


Top
 Profile  
 
 
PostPosted: 28 Jul 2018 
Персональный статус
Joined: 05 Feb 2011
Posts: 349
Lоcаtion: Russia, Novosibirsk
Age: 45
Name: Андрей
Eric - original
Andreas Oberhoff - new remix

Вот только Oberhoff играл на Metal Revolution. А у Vengeance был именно ремикс, а не перезапись


Top
 Profile E-mail  
 
 
PostPosted: 28 Jul 2018 
5-speed satisfactor
User avatar
Joined: 16 Feb 2009
Posts: 3755
Lоcаtion: New York, USA
Age: 41
Name: Leonid
И там, и там написано, что Eric. Я давно слышал версию, что Oberhoff. Из того, что я помню, игра совсем другая. Надо еще раз переслушать. Очифирю - переслушаю.

_________________
Death rules! Metal to all who oppose!


Top
 Profile  
 
 
PostPosted: 28 Jul 2018 
Хиппей (support team)
User avatar
Joined: 30 Jul 2007
Posts: 114007
Lоcаtion: Киев (Kyiv, UA)
Age: 46
Name: Andrey
О, какие подробности "всплывают" интересные :kro:

_________________


Top
 Profile E-mail  
 
Display posts from previous:  Sort by  
Post new topic Reply to topic  [ 32 posts ]  Go to page Previous  1, 2

All times are UTC + 3 hours


Who is online

Users browsing this forum: No registered users and 3 guests


You cannot post new topics in this forum
You cannot reply to topics in this forum
You cannot edit your posts in this forum
You cannot delete your posts in this forum
You cannot post attachments in this forum

Search for:
Яндекс.Метрика
Powered by phpBB © 2000, 2002, 2005, 2007 phpBB Group