\m/ 80's metal \m/

Информационно-аналитический форум "80 см пыли" (In Search We Trust) "У нас никто никуда не спешит"
Me For You - http://me-4u.com
It is currently 14 Dec 2019

All times are UTC + 3 hours

Spoiler
Chat - temporary registration for foreign users (please leave your application here)







Post new topic Reply to topic  [ 15 posts ] 
Author Message
 
PostPosted: 30 Jun 2017 
5-speed satisfactor
User avatar
Joined: 16 Feb 2009
Posts: 3808
Lоcаtion: New York, USA
Age: 41
Name: Leonid
Liege Lord - 1988 - Master Control 1st press Metal Blade CD [wav]

Друг поделился. Оформите плиз.

https://wetransfer.com/downloads/2f1d08 ... 124/9ebefe

Image

    1 Fear Itself - 04:27
    2 Eye Of The Storm - 04:18
    3 Master Control - 05:09
    4 Kill The King (Rainbow cover) - 03:46
    5 Soldier's Fortune - 03:03
    6 Feel The Blade - 03:34
    7 Broken Wasteland - 04:15
    8 Rapture - 04:28
    9 Suspicion - 03:31
    10 Fallout - 05:44

    TPT: 42:06

log
Exact Audio Copy V1.1 from 23. June 2015

EAC extraction logfile from 29. June 2017, 0:22

Liege Lord / Master Control

Used drive : PLEXTOR DVDR PX-755A Adapter: 1 ID: 1

Read mode : Secure
Utilize accurate stream : Yes
Defeat audio cache : Yes
Make use of C2 pointers : No

Read offset correction : 30
Overread into Lead-In and Lead-Out : No
Fill up missing offset samples with silence : Yes
Delete leading and trailing silent blocks : No
Null samples used in CRC calculations : Yes
Used interface : Native Win32 interface for Win NT & 2000

Used output format : Internal WAV Routines
Sample format : 44.100 Hz; 16 Bit; Stereo


TOC of the extracted CD

Track | Start | Length | Start sector | End sector
---------------------------------------------------------
1 | 0:00.00 | 4:27.60 | 0 | 20084
2 | 4:27.60 | 4:17.55 | 20085 | 39414
3 | 8:45.40 | 5:08.72 | 39415 | 62586
4 | 13:54.37 | 3:45.50 | 62587 | 79511
5 | 17:40.12 | 3:03.60 | 79512 | 93296
6 | 20:43.72 | 3:33.70 | 93297 | 109341
7 | 24:17.67 | 4:15.68 | 109342 | 128534
8 | 28:33.60 | 4:27.27 | 128535 | 148586
9 | 33:01.12 | 3:31.08 | 148587 | 164419
10 | 36:32.20 | 5:44.52 | 164420 | 190271


Range status and errors

Selected range

Filename C:\MUSIC1\RIPS\Liege Lord - Master Control\Liege Lord - Master Control.wav

Peak level 96.4 %
Extraction speed 2.5 X
Range quality 100.0 %
Copy CRC 586FA40F
Copy OK

No errors occurred


AccurateRip summary

Track 1 not present in database
Track 2 not present in database
Track 3 not present in database
Track 4 not present in database
Track 5 not present in database
Track 6 not present in database
Track 7 not present in database
Track 8 not present in database
Track 9 not present in database
Track 10 not present in database

None of the tracks are present in the AccurateRip database

End of status report

---- CUETools DB Plugin V2.1.6

[CTDB TOCID: cI8yTn7q9AojUlVJjKDszYu9wRU-] disk not present in database
Submit result: cI8yTn7q9AojUlVJjKDszYu9wRU- has been uploaded

cue
REM DATE 1988
REM DISCID 8D09E80A
REM COMMENT "ExactAudioCopy v1.1"
PERFORMER "Liege Lord"
TITLE "Master Control"
FILE "Liege Lord - Master Control.wav" WAVE
TRACK 01 AUDIO
TITLE "Fear Itself"
PERFORMER "Liege Lord"
INDEX 01 00:00:00
TRACK 02 AUDIO
TITLE "Eye of the Storm"
PERFORMER "Liege Lord"
INDEX 00 04:26:60
INDEX 01 04:27:60
TRACK 03 AUDIO
TITLE "Master Control"
PERFORMER "Liege Lord"
INDEX 00 08:44:40
INDEX 01 08:45:40
TRACK 04 AUDIO
TITLE "Kill the King"
PERFORMER "Liege Lord"
INDEX 00 13:53:37
INDEX 01 13:54:37
TRACK 05 AUDIO
TITLE "Soldiers' Fortune"
PERFORMER "Liege Lord"
INDEX 00 17:39:12
INDEX 01 17:40:12
TRACK 06 AUDIO
TITLE "Feel the Blade"
PERFORMER "Liege Lord"
INDEX 00 20:42:72
INDEX 01 20:43:72
TRACK 07 AUDIO
TITLE "Broken Wasteland"
PERFORMER "Liege Lord"
INDEX 00 24:16:67
INDEX 01 24:17:67
TRACK 08 AUDIO
TITLE "Rapture"
PERFORMER "Liege Lord"
INDEX 00 28:32:60
INDEX 01 28:33:60
TRACK 09 AUDIO
TITLE "Suspicion"
PERFORMER "Liege Lord"
INDEX 00 33:00:12
INDEX 01 33:01:12
TRACK 10 AUDIO
TITLE "Fallout"
PERFORMER "Liege Lord"
INDEX 00 36:30:20
INDEX 01 36:32:20


Image

Image

_________________
Death rules! Metal to all who oppose!


Top
 Profile  
 
 
PostPosted: 30 Jun 2017 
А может смените мне статус?..
Joined: 03 Jul 2009
Posts: 892
Lоcаtion: Serbia
Name: Laki
:thanx: :thanx:


Top
 Profile E-mail  
 
 
PostPosted: 30 Jun 2017 
А может смените мне статус?..
User avatar
Joined: 24 Dec 2008
Posts: 650
Age: 45
Name: Дмитрий
Спасибо!


Top
 Profile  
 
 
PostPosted: 01 Jul 2017 
Хиппей (support team)
User avatar
Joined: 30 Jul 2007
Posts: 116122
Lоcаtion: Киев (Kyiv, UA)
Age: 46
Name: Andrey
:thanx:

mirror: Turbo l M-Cloud l Drop

_________________


Top
 Profile E-mail  
 
 
PostPosted: 08 Jul 2017 
Хиппей (support team)
User avatar
Joined: 30 Jul 2007
Posts: 116122
Lоcаtion: Киев (Kyiv, UA)
Age: 46
Name: Andrey
Неплохая... копия Iron Maiden :cry:
После невзрачного альбома 87 голда. группа начала всё ж играть боле хитовую и скоростную музыку, ка к я и желал. Но, к сожалению, всё приятное впечатление портит вокалист, который исполняет лирику в манере Брюса Дикинсона.
Это и неплохо, но сколько же можно клонировтаь музыку британцев , и тем более, пение мэтра жанра хэви мэтал? :esel:

6/10

_________________


Top
 Profile E-mail  
 
 
PostPosted: 08 Jul 2017 
Хиппей (support team)
User avatar
Joined: 30 Jul 2007
Posts: 116122
Lоcаtion: Киев (Kyiv, UA)
Age: 46
Name: Andrey
Уки, даже шрифт идентичный взяли и робота впердолили :lloo:

Image

_________________


Top
 Profile E-mail  
 
 
PostPosted: 08 Jul 2017 
Power Metal Maniac
User avatar
Joined: 09 Aug 2008
Posts: 7000
Lоcаtion: Москва
Age: 41
Name: Егор
Заглавная песня уделывает весь ваш Maiden. Впрочем, для меня любой Павер лучше Мэйдена. Iron Maiden - это просто звено эволюции, повлиявшее на мой любимый стиль, для меня так :pardon:

_________________
Long Live Metal!


Top
 Profile  
 
 
PostPosted: 08 Jul 2017 
Хиппей (support team)
User avatar
Joined: 30 Jul 2007
Posts: 116122
Lоcаtion: Киев (Kyiv, UA)
Age: 46
Name: Andrey
EG Power wrote:
Заглавная песня уделывает весь ваш Maiden.

Не, она просто скоростью выделяется и припевом. А у Мэйден стырена она с, например, https://www.youtube.com/watch?v=OGL_L0fok10
И попробуй скажи что это не павер.

_________________


Top
 Profile E-mail  
 
 
PostPosted: 08 Jul 2017 
семерых одним ударом
Joined: 18 Aug 2007
Posts: 4300
Lоcаtion: Владивосток
Age: 44
Name: Николай Николаевич
я не слышу у Liege lord мэйденов, по крайней мере не больше чем у остального us power, для которого в принципе мейден стал одним из главных ингридиентов фундамента. И Дикинсона я тут не слышу...я на его копии как и на него самого очень остро и как правило негативно реагирую.


Top
 Profile  
 
 
PostPosted: 08 Jul 2017 
Хиппей (support team)
User avatar
Joined: 30 Jul 2007
Posts: 116122
Lоcаtion: Киев (Kyiv, UA)
Age: 46
Name: Andrey
aziel wrote:
И Дикинсона я тут не слышу...я на его копии как и на него самого очень остро и как правило негативно реагирую.

И ты альбом давно слушал то этот? :nose:

_________________


Top
 Profile E-mail  
 
 
PostPosted: 08 Jul 2017 
семерых одним ударом
Joined: 18 Aug 2007
Posts: 4300
Lоcаtion: Владивосток
Age: 44
Name: Николай Николаевич
ну в этом году точно слушал. Более того, я очень уважительно отношусь к Liege Lord, а Комю считаю очень достойным вокалистом.


Top
 Profile  
 
 
PostPosted: 09 Jul 2017 
Хиппей (support team)
User avatar
Joined: 30 Jul 2007
Posts: 116122
Lоcаtion: Киев (Kyiv, UA)
Age: 46
Name: Andrey
aziel wrote:
Более того, я очень уважительно отношусь к Liege Lord, а Комю считаю очень достойным вокалистом.

Ну так преслушай ещё раз 88-й год "Лордов" и скажи мне и самому себе, на кого похожа там и музыка и вокальные партии :meloman:

_________________


Top
 Profile E-mail  
 
 
PostPosted: 09 Jul 2017 
семерых одним ударом
Joined: 18 Aug 2007
Posts: 4300
Lоcаtion: Владивосток
Age: 44
Name: Николай Николаевич
на Liege lord.


Top
 Profile  
 
 
PostPosted: 09 Jul 2017 
Работнечег
User avatar
Joined: 28 Aug 2007
Posts: 6086
Lоcаtion: г. Москва
Age: 30
Name: Дима
:thanx:


Top
 Profile E-mail  
 
 
PostPosted: 09 Jul 2017 
Хиппей (support team)
User avatar
Joined: 30 Jul 2007
Posts: 116122
Lоcаtion: Киев (Kyiv, UA)
Age: 46
Name: Andrey
aziel wrote:
И Дикинсона я тут не слышу...я на его копии как и на него самого очень остро и как правило негативно реагирую.

Ну и хо-ро-шо :meloman: https://youtu.be/PU6H5rTBiTg?t=79

_________________


Top
 Profile E-mail  
 
Display posts from previous:  Sort by  
Post new topic Reply to topic  [ 15 posts ] 

All times are UTC + 3 hours


Who is online

Users browsing this forum: No registered users and 1 guest


You cannot post new topics in this forum
You cannot reply to topics in this forum
You cannot edit your posts in this forum
You cannot delete your posts in this forum
You cannot post attachments in this forum

Search for:
Яндекс.Метрика
Powered by phpBB © 2000, 2002, 2005, 2007 phpBB Group