\m/ 80's metal \m/

Информационно-аналитический форум "80 см пыли" (In Search We Trust) "У нас никто никуда не спешит"
Me For You - http://me-4u.com
It is currently 24 Aug 2019

All times are UTC + 3 hours

Spoiler
Chat - temporary registration for foreign users (please leave your application here)







Post new topic Reply to topic  [ 106 posts ]  Go to page Previous  1, 2, 3, 4, 5, 6  Next
Author Message
 
PostPosted: 30 Jan 2010 
5-speed satisfactor
User avatar
Joined: 16 Feb 2009
Posts: 3755
Lоcаtion: New York, USA
Age: 41
Name: Leonid
Нужен первопресс. Двойной Living Death, который включает в себя Back To The Weapons, Protected From Reality, Live and World Nerouses не нужен. Спасибо.


[0]Living Death 1986+1987 Back To The Weapons + Protected From Reality (remastered 1994) [ape] (MMT)
Living Death - Protected From Reality (first press) [flac] (Revici)
Mirror
Mirror
(4th albums in 1 archive) [rutracker]
Living Death - 1984 - Vengeance Of Hell (lossless by rockberto [MMT])
Mirror:(lossless by rockberto [MMT])
Mirror: Living Death - Killing in Action (1991) [metaleonid]
Mirrors: Living Death - Metal Revolution [flacs] tape/vinyl version [metaleonid]
Mirror: tape version (Earthshaker) [metaleonid]
Living Death - Metal Revolution (vinyl rip - rutracker)
Living Death - Vengeance of Hell [New remix] by Earthshaker records - 1985
Living Death - Vengeance Of Hell (new remix) - vinyl [metaleonid]
Living Death - 1985 - Metal Revolution (Tape Rips 16/44 + 24/192 Unremastered) (Remastered by Vitaly65)
Mirror: Living Death - 1985 - Metal Revolution (Tape Rips 16/44)[/0]

_________________
Death rules! Metal to all who oppose!


Top
 Profile  
 
 
PostPosted: 18 Feb 2010 
5-speed satisfactor
User avatar
Joined: 16 Feb 2009
Posts: 3755
Lоcаtion: New York, USA
Age: 41
Name: Leonid
Нет, не г. Просто смещение неправильное. Добавить надо 867 семплов тишины в начале, ну а в конце убрать. Вот и сё.

Ну по крайней мере сравнивая 1ый и последний трек вот этого http://www.metal-archives.com/release.php?id=4684
CD с его, у него смещение на 867 семплов. Может у него другой диск и там смещение неправильное?

_________________
Death rules! Metal to all who oppose!


Top
 Profile  
 
 
PostPosted: 18 Feb 2010 
Хиппей (support team)
User avatar
Joined: 30 Jul 2007
Posts: 114077
Lоcаtion: Киев (Kyiv, UA)
Age: 46
Name: Andrey
Ага, понял, спсибо за пояснения. Лося у себя оставлю, но отметочку сделаю, что от смещен на 867 сэмплов :umnik:

_________________


Top
 Profile E-mail  
 
 
PostPosted: 20 Feb 2010 
5-speed satisfactor
User avatar
Joined: 16 Feb 2009
Posts: 3755
Lоcаtion: New York, USA
Age: 41
Name: Leonid
Scatterbrain wrote:
Мдя... получается, что это первый из двух ремастированных дисков. Второго нету.
Но и просили только этот :pardon:
http://www.angelfire.com/az/livingdeath/livdeth.html


Пропустил пост. У меня есть оба, ну т.е. 2ой родной. Но нужен японец и немецкий первопресс исключительно Protected From Reality.

_________________
Death rules! Metal to all who oppose!


Top
 Profile  
 
 
PostPosted: 02 Mar 2010 
Хиппей (support team)
User avatar
Joined: 30 Jul 2007
Posts: 114077
Lоcаtion: Киев (Kyiv, UA)
Age: 46
Name: Andrey
metaleonid wrote:
Но нужен японец и немецкий первопресс исключительно Protected From Reality

Таких нетути :oops:

_________________


Top
 Profile E-mail  
 
 
PostPosted: 20 Aug 2010 
А может смените мне статус?..
User avatar
Joined: 08 Nov 2007
Posts: 634
Lоcаtion: Crimea, UA
Age: 33
Name: Анатолий
Living Death - Back To The Weapons'86 [+Live'87] [Foxxy Medien Re-Release 2006]

Image Image

Genre: Thrash/Speed
Artist country: Germany
Orig. Release: 1986/1987
CD Release: 2006
Country of manufacture: Germany
Rip: eac+flac+cue(image)
Duration: 34:56
Label: Foxxy Medien

Треклист:
1. Nuclear Greetings 4:40
2. Bloody Dance 3:31
3. The Way (Your Soul Must Go) 4:36
4. Child Of Illusion 3:19
5. Killing Machine 2:57
6. Grippin' A Heart 4:50
7. Road Of Destiny 4:24
8. Scremin' From The Chamble 6:36

"CUE"
REM GENRE "Thrash Metal"
REM DATE 1986
REM DISCID 6B083008
REM COMMENT "ExactAudioCopy v0.99pb4"
PERFORMER "Living Death"
TITLE "Back To The Weapons"
FILE "Living Death - Back To The Weapons.flac" WAVE
TRACK 01 AUDIO
TITLE "Nuclear Greetings"
PERFORMER "Living Death"
FLAGS DCP
INDEX 01 00:00:00
TRACK 02 AUDIO
TITLE "Bloody Dance"
PERFORMER "Living Death"
FLAGS DCP
INDEX 00 04:38:49
INDEX 01 04:40:49
TRACK 03 AUDIO
TITLE "The Way (Your Soul Must Go)"
PERFORMER "Living Death"
FLAGS DCP
INDEX 00 08:10:00
INDEX 01 08:12:00
TRACK 04 AUDIO
TITLE "Child Of Illusion"
PERFORMER "Living Death"
FLAGS DCP
INDEX 00 12:46:34
INDEX 01 12:48:34
TRACK 05 AUDIO
TITLE "Killing Machine"
PERFORMER "Living Death"
FLAGS DCP
INDEX 00 16:05:71
INDEX 01 16:07:71
TRACK 06 AUDIO
TITLE "Grippin' A Heart"
PERFORMER "Living Death"
FLAGS DCP
INDEX 00 19:03:52
INDEX 01 19:05:52
TRACK 07 AUDIO
TITLE "Road Of Destiny"
PERFORMER "Living Death"
FLAGS DCP
INDEX 00 23:53:54
INDEX 01 23:55:54
TRACK 08 AUDIO
TITLE "Screamin' From The Chamble"
PERFORMER "Living Death"
FLAGS DCP
INDEX 00 28:18:08
INDEX 01 28:20:08

"LOG"
Exact Audio Copy V0.99 prebeta 4 from 23. January 2008

Отчёт EAC об извлечении, выполненном 8. июля 2010, 12:23

Living Death / Back To The Weapons

Дисковод: HL-DT-STDVDRAM GSA-T20N Adapter: 1 ID: 1

Режим чтения : Достоверность
Использование точного потока : Да
Отключение кэша аудио : Да
Использование указателей C2 : Нет

Коррекция смещения при чтении : 667
Способность читать области Lead-in и Lead-out : Нет
Заполнение пропущенных сэмплов тишиной : Да
Удаление блоков с тишиной в начале и конце : Нет
При вычислениях CRC использовались нулевые сэмплы : Да
Интерфейс : Установленный внешний ASPI-интерфейс

Выходной формат : Внутренние WAV-операции
Формат сэмплов : 44.100 Гц; 16 бит; стерео


TOC извлечённого CD

Трек | Старт | Длительность | Начальный сектор | Конечный сектор
---------------------------------------------------------------------
1 | 0:00.00 | 4:40.49 | 0 | 21048
2 | 4:40.49 | 3:31.26 | 21049 | 36899
3 | 8:12.00 | 4:36.34 | 36900 | 57633
4 | 12:48.34 | 3:19.37 | 57634 | 72595
5 | 16:07.71 | 2:57.56 | 72596 | 85926
6 | 19:05.52 | 4:50.02 | 85927 | 107678
7 | 23:55.54 | 4:24.29 | 107679 | 127507
8 | 28:20.08 | 6:36.04 | 127508 | 157211


Характеристики диапазона извлечения и сообщения об ошибках

Выбранный диапазон

Имя файла G:\LOSSLESS\Living Death\1986 - Back To The Weapons [Foxxy Medien Re-Release 2006]\Living Death - Back To The Weapons.wav

Пиковый уровень 100.0 %
Качество диапазона 100.0 %
CRC копии C651D44C
Копирование... OK

Ошибок не произошло


AccurateRip: сводка

Трек 1 точное извлечение (доверие 1) [70CA8D5C]
Трек 2 точное извлечение (доверие 1) [D12CA956]
Трек 3 точное извлечение (доверие 1) [7AE92D42]
Трек 4 точное извлечение (доверие 1) [3275E8C8]
Трек 5 точное извлечение (доверие 1) [127C917B]
Трек 6 точное извлечение (доверие 1) [8934D45E]
Трек 7 точное извлечение (доверие 1) [4C6E287C]
Трек 8 точное извлечение (доверие 1) [42AFA104]

Все треки извлечены точно

Конец отчёта


Line-up
Thorsten Bergmann (Vocals)
Frank Fricke (Guitar)
Reiner Kelch (Guitar)
Dieter Kelch (Bass)
Atomic Steif (Drums) (tracks 1-4) / Andreas Oberhoff (Drums) (tracks 5-8)


Megaupload
scans inside


Top
 Profile  
 
 
PostPosted: 20 Aug 2010 
А может смените мне статус?..
User avatar
Joined: 08 Nov 2007
Posts: 634
Lоcаtion: Crimea, UA
Age: 33
Name: Анатолий
http://www.musik-sammler.de/media/82512

Должок

viewtopic.php?f=185&t=8491


Top
 Profile  
 
 
PostPosted: 20 Aug 2010 
Хиппей (support team)
User avatar
Joined: 30 Jul 2007
Posts: 114077
Lоcаtion: Киев (Kyiv, UA)
Age: 46
Name: Andrey
viewtopic.php?f=185&t=7490 (а тут кривоватый рип) :scratch:

_________________


Top
 Profile E-mail  
 
 
PostPosted: 20 Aug 2010 
А может смените мне статус?..
User avatar
Joined: 08 Nov 2007
Posts: 634
Lоcаtion: Crimea, UA
Age: 33
Name: Анатолий
Scatterbrain
там другой диск


Top
 Profile  
 
 
PostPosted: 20 Aug 2010 
А может смените мне статус?..
User avatar
Joined: 24 Dec 2008
Posts: 647
Age: 45
Name: Дмитрий
Спасибо!


Top
 Profile  
 
 
PostPosted: 20 Aug 2010 
Прокъмитолист
User avatar
Joined: 12 Aug 2007
Posts: 6593
Lоcаtion: Санктъ-Петербуркъ
Age: 51
Name: Олекъ
возьму-ка я и такое издание до кучи. спасибо :thanx:

_________________
прокъметол - это музыко, от которово есть прок (ы)


Top
 Profile  
 
 
PostPosted: 20 Aug 2010 
Хиппей (support team)
User avatar
Joined: 30 Jul 2007
Posts: 114077
Lоcаtion: Киев (Kyiv, UA)
Age: 46
Name: Andrey
Толя, спасибо :true:

_________________


Top
 Profile E-mail  
 
 
PostPosted: 21 Aug 2010 
Труъ
User avatar
Joined: 14 Jul 2009
Posts: 158
Lоcаtion: Hell Is Here
Age: 49
Name: Adriano
Thank You Very Much ! :thanx: :true:


Top
 Profile E-mail  
 
 
PostPosted: 29 Jan 2011 
Персональный статус
User avatar
Joined: 29 Jan 2009
Posts: 265
Lоcаtion: Таллин, Эстония.
Age: 32
Name: Роман Юрич
У меня винил есть нулячий. Правда с моей аппаратурой на очень хорошее качество рассчитывать не приходиться.

_________________
Death The Ultimate Reality
Death The Ultimate Reason To Live


Top
 Profile  
 
 
PostPosted: 29 Jan 2011 
Хиппей (support team)
User avatar
Joined: 30 Jul 2007
Posts: 114077
Lоcаtion: Киев (Kyiv, UA)
Age: 46
Name: Andrey
Scatterbrain wrote:
На ММТ есть. Качаю помаленьку...

Опа... Чего-то не помню, скачал я его тогда или нет :fingal:
Завтра пересмотрю =)

_________________


Top
 Profile E-mail  
 
 
PostPosted: 29 Jan 2011 
Хиппей (support team)
User avatar
Joined: 30 Jul 2007
Posts: 114077
Lоcаtion: Киев (Kyiv, UA)
Age: 46
Name: Andrey
Ага, скачивал я его. Правда альбом не совсем тот, который нужен... viewtopic.php?f=185&t=7490

_________________


Top
 Profile E-mail  
 
 
PostPosted: 23 Oct 2011 
Rara avis
User avatar
Joined: 27 Jan 2009
Posts: 5215
Name: .
http://rutracker.org/forum/viewtopic.php?t=3429566


Top
 Profile E-mail  
 
 
PostPosted: 24 Oct 2011 
консэрваторъ
User avatar
Joined: 11 Aug 2007
Posts: 17169
Lоcаtion: Псков
Age: 45
Name: Сергей
Снимайте рекса...

_________________
THRASH 'EM ALL


Top
 Profile E-mail  
 
 
PostPosted: 24 Oct 2011 
Хиппей (support team)
User avatar
Joined: 30 Jul 2007
Posts: 114077
Lоcаtion: Киев (Kyiv, UA)
Age: 46
Name: Andrey
Ага, только сначала скачать нужно и перезалить.
Щас сделаю :pardon:

_________________


Top
 Profile E-mail  
 
 
PostPosted: 24 Oct 2011 
Хиппей (support team)
User avatar
Joined: 30 Jul 2007
Posts: 114077
Lоcаtion: Киев (Kyiv, UA)
Age: 46
Name: Andrey
Ну и на трекере винил-рипы от Андрея.
Они точно нужны?

_________________


Top
 Profile E-mail  
 
 
PostPosted: 24 Oct 2011 
Хиппей (support team)
User avatar
Joined: 30 Jul 2007
Posts: 114077
Lоcаtion: Киев (Kyiv, UA)
Age: 46
Name: Andrey
Living Death - Protected From Reality (first press) [flac]

MultiUp l Narod

За рип огромное мерси Андрею Revici :thanx:

Сканов внутри нет.

cue
REM DISCID 6808CC09
REM COMMENT "ExactAudioCopy v0.99pb5"
PERFORMER "Unknown Artist"
TITLE "Unknown Title"
FILE "Living Death - Protected From Reality.flac" WAVE
TRACK 01 AUDIO
TITLE "Track01"
PERFORMER "Unknown Artist"
INDEX 01 00:00:00
TRACK 02 AUDIO
TITLE "Track02"
PERFORMER "Unknown Artist"
INDEX 01 03:33:17
TRACK 03 AUDIO
TITLE "Track03"
PERFORMER "Unknown Artist"
INDEX 01 07:16:57
TRACK 04 AUDIO
TITLE "Track04"
PERFORMER "Unknown Artist"
INDEX 01 11:51:08
TRACK 05 AUDIO
TITLE "Track05"
PERFORMER "Unknown Artist"
INDEX 01 17:03:25
TRACK 06 AUDIO
TITLE "Track06"
PERFORMER "Unknown Artist"
INDEX 01 21:04:49
TRACK 07 AUDIO
TITLE "Track07"
PERFORMER "Unknown Artist"
INDEX 01 25:49:65
TRACK 08 AUDIO
TITLE "Track08"
PERFORMER "Unknown Artist"
INDEX 01 31:18:42
TRACK 09 AUDIO
TITLE "Track09"
PERFORMER "Unknown Artist"
INDEX 01 34:44:34


spectrum
Attachment:
spectrum.jpg
spectrum.jpg [ 815.84 KiB | Viewed 126 times ]

_________________


Top
 Profile E-mail  
 
Display posts from previous:  Sort by  
Post new topic Reply to topic  [ 106 posts ]  Go to page Previous  1, 2, 3, 4, 5, 6  Next

All times are UTC + 3 hours


Who is online

Users browsing this forum: No registered users and 1 guest


You cannot post new topics in this forum
You cannot reply to topics in this forum
You cannot edit your posts in this forum
You cannot delete your posts in this forum
You cannot post attachments in this forum

Search for:
Яндекс.Метрика
Powered by phpBB © 2000, 2002, 2005, 2007 phpBB Group