\m/ 80's metal \m/

Информационно-аналитический форум "80 см пыли" (In Search We Trust) "У нас никто никуда не спешит"
Me For You - http://me-4u.com
It is currently 24 Aug 2019

All times are UTC + 3 hours

Spoiler
Chat - temporary registration for foreign users (please leave your application here)







Post new topic Reply to topic  [ 17 posts ] 
Author Message
 
PostPosted: 04 Nov 2015 
Персональный статус
User avatar
Joined: 27 Apr 2008
Posts: 233
Lоcаtion: Kovrov-City
Age: 41
Name: Константин
LORDIAN WINDS - Lordian Winds 12" EP

Image

Officially released for first time in the LORDIAN GUARD "Anthology" double CD, this is the remastered vinyl edition of the post-WARLORD project of William J Tsamis that recorded four demo songs.

Tracklist:
1. My Name Is Man, 2. Stygian Passage, 3. In The Name Of God, 4. Dark Civilization

Limited to 300 copies with insert including lyrics.

ищу хотя бы в mp3 :umnik:
кстати был бы благодарен и за вышеуказанную компиляцию

_________________
Riding high on the black wings of death
Like a nightmare that's choking your breath


Last edited by Blackmaster on 15 Nov 2015, edited 2 times in total.

Top
 Profile  
 
 
PostPosted: 05 Nov 2015 
А может смените мне статус?..
Joined: 11 Sep 2010
Posts: 532
Lоcаtion: Тверь
Age: 46
Name: Сергей
LORDIAN WINDS – LORDIAN WINDS (1986) mp3
http://heavy-metal-gems.com/2013/03/lor ... -1986.html


Top
 Profile E-mail  
 
 
PostPosted: 05 Nov 2015 
А может смените мне статус?..
Joined: 11 Sep 2010
Posts: 532
Lоcаtion: Тверь
Age: 46
Name: Сергей
И тут ещё http://rutracker.org/forum/viewtopic.php?t=1092949


Top
 Profile E-mail  
 
 
PostPosted: 05 Nov 2015 
консэрваторъ
User avatar
Joined: 11 Aug 2007
Posts: 17169
Lоcаtion: Псков
Age: 45
Name: Сергей
Blackmaster wrote:
или хотя бы в mp3

Лосяша будем искать или этого материала достаточно?..

_________________
THRASH 'EM ALL


Top
 Profile E-mail  
 
 
PostPosted: 05 Nov 2015 
Персональный статус
User avatar
Joined: 27 Apr 2008
Posts: 233
Lоcаtion: Kovrov-City
Age: 41
Name: Константин
то, что я написал было выпущено в 2013 и помоему ремастером
вышеупомянутое демо 1986 года у меня есть, хотя по составу песен вроде бы одно и то же
но хотелось бы именно ремастер 2013

_________________
Riding high on the black wings of death
Like a nightmare that's choking your breath


Top
 Profile  
 
 
PostPosted: 06 Nov 2015 
консэрваторъ
User avatar
Joined: 11 Aug 2007
Posts: 17169
Lоcаtion: Псков
Age: 45
Name: Сергей
Может тему надо переименовать тогда по факту поискового запроса... Это ищется по итогам?..

Lordian Guard - Anthology 2013 (Com)

На всякий случай, вся остальная дискография в мп3 здесь http://rutracker.org/forum/viewtopic.php?t=5050607

_________________
THRASH 'EM ALL


Top
 Profile E-mail  
 
 
PostPosted: 08 Nov 2015 
спирт 100%
User avatar
Joined: 22 Sep 2008
Posts: 4459
Age: 48
Name: Саня
Lordian Guard - Anthology 2013

Image

CD I
01. Lost Archangel
02. Revelation XIX
03. My Name Is Man
04. Winds Of Thor
05. War In Heaven
06. In Peace He Comes Again
07. My Name Is Man (Lordian Winds)
08. Stygian Passage (Lordian Winds)
09. In The Name Of God (Lordian Winds)
10. Dark Civilization (Lordian Winds)
CD II
01. Golgotha
02. Behold A Pale Horse
03. Stygian Passage
04. Father
05. Sinners In The Hands Of An Angry God
06. Battle Of The Living Dead
07. Children Of The King
08. Behold A Pale Horse (12” single version)
09. Deliver Us from Evil (12” single B’ side)
10. Invaders
11. Lady Vidonne (A Love Song) Bonus Track

[VBR]


Top
 Profile  
 
 
PostPosted: 08 Nov 2015 
Хиппей (support team)
User avatar
Joined: 30 Jul 2007
Posts: 114077
Lоcаtion: Киев (Kyiv, UA)
Age: 46
Name: Andrey
:thanx:

Запрос закрыт?

_________________


Top
 Profile E-mail  
 
 
PostPosted: 08 Nov 2015 
Персональный статус
User avatar
Joined: 27 Apr 2008
Posts: 233
Lоcаtion: Kovrov-City
Age: 41
Name: Константин
во-первых, спасибо Андрей!!
во-вторых, надо бы послушать и проверить качество - на днях сделаю, вдруг перекод или какая-нибудь попорченность треков
ну а потом уже отпишусь, мне кажется лося почти не возможно достать

_________________
Riding high on the black wings of death
Like a nightmare that's choking your breath


Top
 Profile  
 
 
PostPosted: 09 Nov 2015 
консэрваторъ
User avatar
Joined: 11 Aug 2007
Posts: 17169
Lоcаtion: Псков
Age: 45
Name: Сергей
Если лось будет не нужен по итогам, надо не забыть тему перенести в соответствующий раздел... А так же, Костя, придай названию темы соответствие с найденным...

_________________
THRASH 'EM ALL


Top
 Profile E-mail  
 
 
PostPosted: 12 Nov 2015 
Хиппей (support team)
User avatar
Joined: 30 Jul 2007
Posts: 114077
Lоcаtion: Киев (Kyiv, UA)
Age: 46
Name: Andrey
Blackmaster wrote:
во-вторых, надо бы послушать и проверить качество - на днях сделаю, вдруг перекод или какая-нибудь попорченность треков

Угу, я вот под первую демку поспал немного. Как раз около 3-х раз удалось во сне послушать это... эту музыку с девичьим вокалом.
По ходу, это Cold Wave, никакого отношения не имеющий к metal music.
А попорченностей и даже обрывов на той ленте предостаточно. Ты прав.



Blackmaster wrote:
LORDIAN WINDS - Lordian Winds 12" EP


:thanx:

mirror: iFolder l Narod l M-Cloud

_________________


Top
 Profile E-mail  
 
 
PostPosted: 12 Nov 2015 
Прокъмитолист
User avatar
Joined: 12 Aug 2007
Posts: 6593
Lоcаtion: Санктъ-Петербуркъ
Age: 51
Name: Олекъ
антологический лосик тут: http://rutracker.org/forum/viewtopic.php?t=5113941

_________________
прокъметол - это музыко, от которово есть прок (ы)


Top
 Profile  
 
 
PostPosted: 12 Nov 2015 
Хиппей (support team)
User avatar
Joined: 30 Jul 2007
Posts: 114077
Lоcаtion: Киев (Kyiv, UA)
Age: 46
Name: Andrey
антологический лосик тут: http://rutracker.org/forum/viewtopic.php?t=5113941

:thanx:

Там хоть действительно Epic Heavy присутствует иногда. Я про антологию.

Вот ссылка на неё в mp3.

Lordian Guard - Anthology [mp3 - VBR]


mirror: iFolder l Narod l M-Cloud




зы. Никого не смущает, что у проекта данного два названия? :oops:

_________________


Top
 Profile E-mail  
 
 
PostPosted: 13 Nov 2015 
Хиппей (support team)
User avatar
Joined: 30 Jul 2007
Posts: 114077
Lоcаtion: Киев (Kyiv, UA)
Age: 46
Name: Andrey
Етить, скачал всё же лося, а заархивировать и залить его нету места на компе :crazy:
Мож потрэково заливать?

_________________


Top
 Profile E-mail  
 
 
PostPosted: 13 Nov 2015 
Персональный статус
User avatar
Joined: 27 Apr 2008
Posts: 233
Lоcаtion: Kovrov-City
Age: 41
Name: Константин
Теперь наверно можно прикрыть запрос

_________________
Riding high on the black wings of death
Like a nightmare that's choking your breath


Top
 Profile  
 
 
PostPosted: 15 Nov 2015 
консэрваторъ
User avatar
Joined: 11 Aug 2007
Posts: 17169
Lоcаtion: Псков
Age: 45
Name: Сергей
Так почему бы самому это не сделать?.. Ты топикстартер, отредактируй свой первый пост, сними рекса в заголовке и тему переименуй корректно...

_________________
THRASH 'EM ALL


Top
 Profile E-mail  
 
 
PostPosted: 16 Nov 2015 
Хиппей (support team)
User avatar
Joined: 30 Jul 2007
Posts: 114077
Lоcаtion: Киев (Kyiv, UA)
Age: 46
Name: Andrey
Lordian Guard - 2013 - Anthology [flacs]

mirror: iFolder l Narod l M-Cloud

CD1 - log
Exact Audio Copy V1.1 from 23. June 2015

EAC extraction logfile from 29. July 2015, 18:06

Lordian Guard / Anthology (Disc 1)

Used drive : Optiarc DVD RW AD-5280S Adapter: 1 ID: 0

Read mode : Secure
Utilize accurate stream : Yes
Defeat audio cache : Yes
Make use of C2 pointers : No

Read offset correction : 48
Overread into Lead-In and Lead-Out : No
Fill up missing offset samples with silence : Yes
Delete leading and trailing silent blocks : No
Null samples used in CRC calculations : Yes
Used interface : Native Win32 interface for Win NT & 2000
Gap handling : Appended to previous track

Used output format : User Defined Encoder
Selected bitrate : 1024 kBit/s
Quality : High
Add ID3 tag : No
Command line compressor : C:\Program Files (x86)\Exact Audio Copy\Flac\flac.exe
Additional command line options : -8 -V -T "ARTIST=%artist%" -T "TITLE=%title%" -T "ALBUM=%albumtitle%" -T "DATE=%year%" -T "TRACKNUMBER=%tracknr%" -T "GENRE=%genre%" -T "PERFORMER=%albuminterpret%" -T "COMPOSER=%composer%" %haslyrics%--tag-from-file=LYRICS="%lyricsfile%"%haslyrics% -T "ALBUMARTIST=%albumartist%" -T "DISCNUMBER=%cdnumber%" -T "TOTALDISCS=%totalcds%" -T "TOTALTRACKS=%numtracks%" -T "COMMENT=%comment%" %source% -o %dest%


TOC of the extracted CD

Track | Start | Length | Start sector | End sector
---------------------------------------------------------
1 | 0:00.00 | 7:48.25 | 0 | 35124
2 | 7:48.25 | 7:49.56 | 35125 | 70355
3 | 15:38.06 | 6:06.00 | 70356 | 97805
4 | 21:44.06 | 5:27.68 | 97806 | 122398
5 | 27:11.74 | 7:41.53 | 122399 | 157026
6 | 34:53.52 | 3:43.69 | 157027 | 173820
7 | 38:37.46 | 5:14.39 | 173821 | 197409
8 | 43:52.10 | 5:12.74 | 197410 | 220883
9 | 49:05.09 | 5:53.58 | 220884 | 247416
10 | 54:58.67 | 7:25.35 | 247417 | 280826


Track 1

Filename C:\01 Lost Archangel.wav

Pre-gap length 0:00:02.00

Peak level 97.7 %
Extraction speed 5.3 X
Track quality 100.0 %
Test CRC 2CC23A34
Copy CRC 2CC23A34
Accurately ripped (confidence 3) [DFDD6DEF] (AR v2)
Copy OK

Track 2

Filename C:\02 Revelation XIX.wav

Peak level 96.0 %
Extraction speed 5.1 X
Track quality 99.9 %
Test CRC 47BE3722
Copy CRC 47BE3722
Accurately ripped (confidence 3) [CA164ABE] (AR v2)
Copy OK

Track 3

Filename C:\03 My Name is Man.wav

Peak level 97.7 %
Extraction speed 6.9 X
Track quality 100.0 %
Test CRC 58B4BDDC
Copy CRC 58B4BDDC
Accurately ripped (confidence 3) [17480A72] (AR v2)
Copy OK

Track 4

Filename C:\04 Winds of Thor.wav

Peak level 97.7 %
Extraction speed 7.3 X
Track quality 100.0 %
Test CRC 33B2D558
Copy CRC 33B2D558
Accurately ripped (confidence 3) [5DC32177] (AR v2)
Copy OK

Track 5

Filename C:\05 War in Heaven.wav

Peak level 97.7 %
Extraction speed 8.1 X
Track quality 100.0 %
Test CRC 2D55F64F
Copy CRC 2D55F64F
Accurately ripped (confidence 3) [0261442F] (AR v2)
Copy OK

Track 6

Filename C:\06 In Peace He Comes Again.wav

Peak level 100.0 %
Extraction speed 7.9 X
Track quality 100.0 %
Test CRC 65D142F8
Copy CRC 65D142F8
Accurately ripped (confidence 3) [93821EBA] (AR v2)
Copy OK

Track 7

Filename C:\07 My Name Is Man (Lordian Winds).wav

Peak level 97.7 %
Extraction speed 8.6 X
Track quality 100.0 %
Test CRC 06F796B6
Copy CRC 06F796B6
Accurately ripped (confidence 3) [5BECC208] (AR v2)
Copy OK

Track 8

Filename C:\08 Stygian Passage (Lordian Winds).wav

Peak level 97.7 %
Extraction speed 9.0 X
Track quality 100.0 %
Test CRC C0489B1A
Copy CRC C0489B1A
Accurately ripped (confidence 3) [5469CCB5] (AR v2)
Copy OK

Track 9

Filename C:\09 In The Name Of God (Lordian Winds).wav

Peak level 97.7 %
Extraction speed 9.4 X
Track quality 100.0 %
Test CRC E6E3CE13
Copy CRC E6E3CE13
Accurately ripped (confidence 3) [50313048] (AR v2)
Copy OK

Track 10

Filename C:\10 Dark Civilization (Lordian Winds).wav

Peak level 97.7 %
Extraction speed 10.1 X
Track quality 100.0 %
Test CRC A43E24E9
Copy CRC A43E24E9
Accurately ripped (confidence 3) [6FDA92C0] (AR v2)
Copy OK


All tracks accurately ripped

No errors occurred

End of status report

---- CUETools DB Plugin V2.1.6

[CTDB TOCID: ig3AYWi8o0RPpvlC5YGaNjWyCbI-] found
Submit result: ig3AYWi8o0RPpvlC5YGaNjWyCbI- has been confirmed
Track | CTDB Status
1 | (5/5) Accurately ripped
2 | (5/5) Accurately ripped
3 | (5/5) Accurately ripped
4 | (5/5) Accurately ripped
5 | (5/5) Accurately ripped
6 | (5/5) Accurately ripped
7 | (5/5) Accurately ripped
8 | (5/5) Accurately ripped
9 | (5/5) Accurately ripped
10 | (5/5) Accurately ripped


==== Log checksum BCB8DCED731C3ADBF39DB3C7137B3C51289825A0CF58FFE2B2C83100451946A8 ====

CD1 - cue
REM GENRE Metal
REM DATE 2013
REM DISCID 7B0EA00A
REM COMMENT "ExactAudioCopy v1.1"
FILE "01 Lost Archangel.wav" WAVE
TRACK 01 AUDIO
INDEX 01 00:00:00
FILE "02 Revelation XIX.wav" WAVE
TRACK 02 AUDIO
INDEX 01 00:00:00
FILE "03 My Name is Man.wav" WAVE
TRACK 03 AUDIO
INDEX 01 00:00:00
FILE "04 Winds of Thor.wav" WAVE
TRACK 04 AUDIO
INDEX 01 00:00:00
FILE "05 War in Heaven.wav" WAVE
TRACK 05 AUDIO
INDEX 01 00:00:00
FILE "06 In Peace He Comes Again.wav" WAVE
TRACK 06 AUDIO
INDEX 01 00:00:00
FILE "07 My Name Is Man (Lordian Winds).wav" WAVE
TRACK 07 AUDIO
INDEX 01 00:00:00
FILE "08 Stygian Passage (Lordian Winds).wav" WAVE
TRACK 08 AUDIO
INDEX 01 00:00:00
FILE "09 In The Name Of God (Lordian Winds).wav" WAVE
TRACK 09 AUDIO
INDEX 01 00:00:00
FILE "10 Dark Civilization (Lordian Winds).wav" WAVE
TRACK 10 AUDIO
INDEX 01 00:00:00

Image

Image

Image

Image

Image

CD2 - log
Exact Audio Copy V1.1 from 23. June 2015

EAC extraction logfile from 29. July 2015, 22:06

Lordian Guard / Anthology (Disc 2)

Used drive : Optiarc DVD RW AD-5280S Adapter: 1 ID: 0

Read mode : Secure
Utilize accurate stream : Yes
Defeat audio cache : Yes
Make use of C2 pointers : No

Read offset correction : 48
Overread into Lead-In and Lead-Out : No
Fill up missing offset samples with silence : Yes
Delete leading and trailing silent blocks : No
Null samples used in CRC calculations : Yes
Used interface : Native Win32 interface for Win NT & 2000
Gap handling : Appended to previous track

Used output format : User Defined Encoder
Selected bitrate : 1024 kBit/s
Quality : High
Add ID3 tag : No
Command line compressor : C:\Program Files (x86)\Exact Audio Copy\Flac\flac.exe
Additional command line options : -8 -V -T "ARTIST=%artist%" -T "TITLE=%title%" -T "ALBUM=%albumtitle%" -T "DATE=%year%" -T "TRACKNUMBER=%tracknr%" -T "GENRE=%genre%" -T "PERFORMER=%albuminterpret%" -T "COMPOSER=%composer%" %haslyrics%--tag-from-file=LYRICS="%lyricsfile%"%haslyrics% -T "ALBUMARTIST=%albumartist%" -T "DISCNUMBER=%cdnumber%" -T "TOTALDISCS=%totalcds%" -T "TOTALTRACKS=%numtracks%" -T "COMMENT=%comment%" %source% -o %dest%


TOC of the extracted CD

Track | Start | Length | Start sector | End sector
---------------------------------------------------------
1 | 0:00.00 | 6:01.41 | 0 | 27115
2 | 6:01.41 | 8:28.12 | 27116 | 65227
3 | 14:29.53 | 5:22.09 | 65228 | 89386
4 | 19:51.62 | 5:10.71 | 89387 | 112707
5 | 25:02.58 | 10:10.24 | 112708 | 158481
6 | 35:13.07 | 4:16.44 | 158482 | 177725
7 | 39:29.51 | 5:21.30 | 177726 | 201830
8 | 44:51.06 | 8:47.48 | 201831 | 241403
9 | 53:38.54 | 5:56.01 | 241404 | 268104
10 | 59:34.55 | 6:04.08 | 268105 | 295412
11 | 65:38.63 | 4:52.14 | 295413 | 317326


Track 1

Filename C:\01 Golgotha.wav

Pre-gap length 0:00:02.00

Peak level 97.7 %
Extraction speed 2.5 X
Track quality 99.9 %
Test CRC 2FE66666
Copy CRC 2FE66666
Accurately ripped (confidence 3) [2D65F0DF] (AR v2)
Copy OK

Track 2

Filename C:\02 Behold A Pale Horse.wav

Peak level 97.7 %
Extraction speed 3.3 X
Track quality 100.0 %
Test CRC 2DCB3259
Copy CRC 2DCB3259
Accurately ripped (confidence 3) [438123FF] (AR v2)
Copy OK

Track 3

Filename C:\03 Stygian Passage.wav

Peak level 97.7 %
Extraction speed 3.5 X
Track quality 100.0 %
Test CRC D97BBBFE
Copy CRC D97BBBFE
Accurately ripped (confidence 3) [78CB4479] (AR v2)
Copy OK

Track 4

Filename C:\04 Father.wav

Peak level 97.7 %
Extraction speed 3.8 X
Track quality 100.0 %
Test CRC 86BB8FB9
Copy CRC 86BB8FB9
Accurately ripped (confidence 3) [5A179073] (AR v2)
Copy OK

Track 5

Filename C:\05 Sinners In The Hands Of An Angry God.wav

Peak level 97.7 %
Extraction speed 4.3 X
Track quality 100.0 %
Test CRC D80CDC2B
Copy CRC D80CDC2B
Accurately ripped (confidence 3) [31ADD95A] (AR v2)
Copy OK

Track 6

Filename C:\06 Battle Of The Living Dead.wav

Peak level 97.7 %
Extraction speed 4.3 X
Track quality 100.0 %
Test CRC 2662C88D
Copy CRC 2662C88D
Accurately ripped (confidence 3) [D6A93BCA] (AR v2)
Copy OK

Track 7

Filename C:\07 Children Of The King.wav

Peak level 97.7 %
Extraction speed 4.6 X
Track quality 100.0 %
Test CRC F103C3F8
Copy CRC F103C3F8
Accurately ripped (confidence 3) [ADD2D7E2] (AR v2)
Copy OK

Track 8

Filename C:\08 Behold A Pale Horse (12” single version).wav

Peak level 97.7 %
Extraction speed 5.1 X
Track quality 100.0 %
Test CRC F1605704
Copy CRC F1605704
Accurately ripped (confidence 3) [3E22BE40] (AR v2)
Copy OK

Track 9

Filename C:\09 Deliver Us from Evil (12” single B’ side).wav

Peak level 100.0 %
Extraction speed 5.2 X
Track quality 100.0 %
Test CRC 85DF772E
Copy CRC 85DF772E
Accurately ripped (confidence 3) [68E076FE] (AR v2)
Copy OK

Track 10

Filename C:\10 Invaders.wav

Peak level 85.1 %
Extraction speed 5.4 X
Track quality 100.0 %
Test CRC 4289F1A7
Copy CRC 4289F1A7
Accurately ripped (confidence 3) [6A810551] (AR v2)
Copy OK

Track 11

Filename C:\11 Lady Vidonne (A Love Song).wav

Peak level 97.7 %
Extraction speed 4.9 X
Track quality 99.9 %
Test CRC 122948DE
Copy CRC 122948DE
Accurately ripped (confidence 3) [EE52CF89] (AR v2)
Copy OK


All tracks accurately ripped

No errors occurred

End of status report

---- CUETools DB Plugin V2.1.6

[CTDB TOCID: k6wtqvA3coDqxmAr0EX6ItfSaok-] found
Submit result: k6wtqvA3coDqxmAr0EX6ItfSaok- has been confirmed
Track | CTDB Status
1 | (5/5) Accurately ripped
2 | (5/5) Accurately ripped
3 | (5/5) Accurately ripped
4 | (5/5) Accurately ripped
5 | (5/5) Accurately ripped
6 | (5/5) Accurately ripped
7 | (5/5) Accurately ripped
8 | (5/5) Accurately ripped
9 | (5/5) Accurately ripped
10 | (5/5) Accurately ripped
11 | (5/5) Accurately ripped


==== Log checksum 56B533454FEC6CCBC9FD45402592287EDD6D44A15F695567ACBEA4B2EC32D3D4 ====

CD2 - cue
REM GENRE Metal
REM DATE 2013
REM DISCID 8C10870B
REM COMMENT "ExactAudioCopy v1.1"
FILE "01 Golgotha.wav" WAVE
TRACK 01 AUDIO
INDEX 01 00:00:00
FILE "02 Behold A Pale Horse.wav" WAVE
TRACK 02 AUDIO
INDEX 01 00:00:00
FILE "03 Stygian Passage.wav" WAVE
TRACK 03 AUDIO
INDEX 01 00:00:00
FILE "04 Father.wav" WAVE
TRACK 04 AUDIO
INDEX 01 00:00:00
FILE "05 Sinners In The Hands Of An Angry God.wav" WAVE
TRACK 05 AUDIO
INDEX 01 00:00:00
FILE "06 Battle Of The Living Dead.wav" WAVE
TRACK 06 AUDIO
INDEX 01 00:00:00
FILE "07 Children Of The King.wav" WAVE
TRACK 07 AUDIO
INDEX 01 00:00:00
FILE "08 Behold A Pale Horse (12” single version).wav" WAVE
TRACK 08 AUDIO
INDEX 01 00:00:00
FILE "09 Deliver Us from Evil (12” single B’ side).wav" WAVE
TRACK 09 AUDIO
INDEX 01 00:00:00
FILE "10 Invaders.wav" WAVE
TRACK 10 AUDIO
INDEX 01 00:00:00
FILE "11 Lady Vidonne (A Love Song).wav" WAVE
TRACK 11 AUDIO
INDEX 01 00:00:00

_________________


Top
 Profile E-mail  
 
Display posts from previous:  Sort by  
Post new topic Reply to topic  [ 17 posts ] 

All times are UTC + 3 hours


Who is online

Users browsing this forum: No registered users and 1 guest


You cannot post new topics in this forum
You cannot reply to topics in this forum
You cannot edit your posts in this forum
You cannot delete your posts in this forum
You cannot post attachments in this forum

Search for:
Яндекс.Метрика
Powered by phpBB © 2000, 2002, 2005, 2007 phpBB Group