\m/ 80's metal \m/

Информационно-аналитический форум "80 см пыли" (In Search We Trust) "У нас никто никуда не спешит"
Me For You - http://me-4u.com
It is currently 20 Aug 2019

All times are UTC + 3 hours

Spoiler
Chat - temporary registration for foreign users (please leave your application here)







Post new topic Reply to topic  [ 14 posts ] 
Author Message
 
PostPosted: 28 Jul 2015 
Генеральный thrasher
User avatar
Joined: 03 Oct 2008
Posts: 3717
Lоcаtion: Ханты-Мансийский АО
Age: 44
Name: Сергей
Image

Year:1992 (2014 Re-Issue)
Style:Thrash Metal
Country:Brazil
Archive:Flac+Cue+Log+Scans
Size:398Mb
Source:my CD
Label:Fonomídia

Line-Up:
Flávio Soares - vocals,bass
Danilo Pizzato - drums
Carlos "Lots" - guitars
Alexandre Colletti - guitars

Tracklist:
01. Seeds Of Violence 04:18
02. Facing Reality 03:35
03. Drinkin' Death 02:43
04. In Search Of Life 03:58
05. My Cat 03:23
06. Visions of a Distorted Path 03:32
07. The Evil Within 04:14
08. Philip VII 00:43
09. Time For Lies 05:15
10. Disturbed Mind 05:01
Thrash Your Brain demo (1988):
11. Bred To Die 05:24
12. The Last Sopper 05:20
13. Pimponetta 00:55

"Cue"
REM GENRE "Thrash Metal"
REM DATE 2014
REM DISCID B40B5A0D
REM COMMENT "ExactAudioCopy v0.99pb5"
PERFORMER "Leviaethan"
TITLE "Disturbed Mind"
FILE "Leviaethan - Disturbed Mind.flac" WAVE
TRACK 01 AUDIO
TITLE "Seeds Of Violence"
PERFORMER "Leviaethan"
FLAGS DCP
INDEX 01 00:00:00
TRACK 02 AUDIO
TITLE "Facing Reality"
PERFORMER "Leviaethan"
FLAGS DCP
INDEX 01 04:18:37
TRACK 03 AUDIO
TITLE "Drinkin' Death"
PERFORMER "Leviaethan"
FLAGS DCP
INDEX 01 07:53:44
TRACK 04 AUDIO
TITLE "In Search Of Life"
PERFORMER "Leviaethan"
FLAGS DCP
INDEX 01 10:36:66
TRACK 05 AUDIO
TITLE "My Cat"
PERFORMER "Leviaethan"
FLAGS DCP
INDEX 01 14:35:28
TRACK 06 AUDIO
TITLE "Visions of a Distorted Path"
PERFORMER "Leviaethan"
FLAGS DCP
INDEX 01 17:59:05
TRACK 07 AUDIO
TITLE "The Evil Within"
PERFORMER "Leviaethan"
FLAGS DCP
INDEX 01 21:31:42
TRACK 08 AUDIO
TITLE "Philip VII"
PERFORMER "Leviaethan"
FLAGS DCP
INDEX 01 25:45:72
TRACK 09 AUDIO
TITLE "Time For Lies"
PERFORMER "Leviaethan"
FLAGS DCP
INDEX 01 26:29:12
TRACK 10 AUDIO
TITLE "Disturbed Mind"
PERFORMER "Leviaethan"
FLAGS DCP
INDEX 01 31:44:42
TRACK 11 AUDIO
TITLE "Bred To Die"
PERFORMER "Leviaethan"
FLAGS DCP
INDEX 01 36:46:12
TRACK 12 AUDIO
TITLE "The Last Sopper"
PERFORMER "Leviaethan"
FLAGS DCP
INDEX 01 42:10:27
TRACK 13 AUDIO
TITLE "Pimponetta"
PERFORMER "Leviaethan"
FLAGS DCP
INDEX 01 47:30:57

"Log"
Exact Audio Copy V0.99 prebeta 5 from 4. May 2009

Отчёт EAC об извлечении, выполненном 24. июня 2015, 14:09

Leviaethan / Disturbed Mind

Дисковод: MATSHITADVD-RAM UJ8A0AS Adapter: 0 ID: 1

Режим чтения : Достоверность
Использование точного потока : Да
Отключение кэша аудио : Да
Использование указателей C2 : Нет

Коррекция смещения при чтении : 102
Способность читать области Lead-in и Lead-out : Нет
Заполнение пропущенных сэмплов тишиной : Да
Удаление блоков с тишиной в начале и конце : Нет
При вычислениях CRC использовались нулевые сэмплы : Да
Интерфейс : Встроенный Win32-интерфейс для Win NT/2000

Выходной формат : Пользовательский кодировщик
Выбранный битрейт : 1024 kBit/s
Качество : Высокий
Добавление ID3-тэга : Нет
Утилита сжатия : C:\Program Files\Exact Audio Copy\FLAC\FLAC.EXE
Дополнительные параметры : -6 -V -T "ARTIST=%a" -T "TITLE=%t" -T "ALBUM=%g" -T "DATE=%y" -T "TRACKNUMBER=%n" -T "GENRE=%m" -T "COMMENT=%e" %s -o %d


TOC извлечённого CD

Трек | Старт | Длительность | Начальный сектор | Конечный сектор
---------------------------------------------------------------------
1 | 0:00.00 | 4:18.37 | 0 | 19386
2 | 4:18.37 | 3:35.07 | 19387 | 35518
3 | 7:53.44 | 2:43.22 | 35519 | 47765
4 | 10:36.66 | 3:58.37 | 47766 | 65652
5 | 14:35.28 | 3:23.52 | 65653 | 80929
6 | 17:59.05 | 3:32.37 | 80930 | 96866
7 | 21:31.42 | 4:14.30 | 96867 | 115946
8 | 25:45.72 | 0:43.15 | 115947 | 119186
9 | 26:29.12 | 5:15.30 | 119187 | 142841
10 | 31:44.42 | 5:01.45 | 142842 | 165461
11 | 36:46.12 | 5:24.15 | 165462 | 189776
12 | 42:10.27 | 5:20.30 | 189777 | 213806
13 | 47:30.57 | 0:55.22 | 213807 | 217953


Характеристики диапазона извлечения и сообщения об ошибках

Выбранный диапазон

Имя файла C:\Users\эксперт\Music\Leviaethan - Disturbed Mind.wav

Пиковый уровень 100.0 %
Качество диапазона 100.0 %
CRC копии 4318FF39
Копирование... OK

Ошибок не произошло


AccurateRip: сводка

Трек 1 нет в базе данных
Трек 2 нет в базе данных
Трек 3 нет в базе данных
Трек 4 нет в базе данных
Трек 5 нет в базе данных
Трек 6 нет в базе данных
Трек 7 нет в базе данных
Трек 8 нет в базе данных
Трек 9 нет в базе данных
Трек 10 нет в базе данных
Трек 11 нет в базе данных
Трек 12 нет в базе данных
Трек 13 нет в базе данных

Ни одного трека нет в базе AccurateRip

Конец отчёта


Disturbed Mind


Top
 Profile  
 
 
PostPosted: 29 Jul 2015 
Персональный статус
Joined: 19 Jul 2010
Posts: 282
Lоcаtion: Москва
Name: Вадим
Спасибо. Я не любитель бразильского треша, но этот альбом понравился: вроде бы и жесткость присутствует, но звучит беззлобно.


Top
 Profile E-mail  
 
 
PostPosted: 29 Jul 2015 
Хиппей (support team)
User avatar
Joined: 30 Jul 2007
Posts: 114007
Lоcаtion: Киев (Kyiv, UA)
Age: 46
Name: Andrey
:thanx:

mirror: iFolder l Narod l M-Cloud

_________________


Top
 Profile E-mail  
 
 
PostPosted: 29 Jul 2015 
ТрэшЭрос
User avatar
Joined: 18 Jul 2011
Posts: 2304
Lоcаtion: Гулькевичи
Age: 44
Name: Александр
:thanx: :true:

_________________
Thrash no trash!!!


Top
 Profile E-mail  
 
 
PostPosted: 29 Jul 2015 
Хиппей (support team)
User avatar
Joined: 30 Jul 2007
Posts: 114007
Lоcаtion: Киев (Kyiv, UA)
Age: 46
Name: Andrey
Тоже понравился альбом. Мягкий трэшак с хардкоровым вокалистом :lob:

_________________


Top
 Profile E-mail  
 
 
PostPosted: 29 Jul 2015 
Прокъмитолист
User avatar
Joined: 12 Aug 2007
Posts: 6590
Lоcаtion: Санктъ-Петербуркъ
Age: 51
Name: Олекъ
:thanx:

_________________
прокъметол - это музыко, от которово есть прок (ы)


Top
 Profile  
 
 
PostPosted: 29 Jul 2015 
Хиппей (support team)
User avatar
Joined: 30 Jul 2007
Posts: 114007
Lоcаtion: Киев (Kyiv, UA)
Age: 46
Name: Andrey

_________________


Top
 Profile E-mail  
 
 
PostPosted: 31 Jul 2015 
Генеральный thrasher
User avatar
Joined: 03 Oct 2008
Posts: 3717
Lоcаtion: Ханты-Мансийский АО
Age: 44
Name: Сергей
Спасибо. Я не любитель бразильского треша


А я любитель...Нет, скажем так, не любитель,а рьяный поклонник именно бразильского трэша (кроме Сепультуры).


Top
 Profile  
 
 
PostPosted: 02 Aug 2015 
Хиппей (support team)
User avatar
Joined: 30 Jul 2007
Posts: 114007
Lоcаtion: Киев (Kyiv, UA)
Age: 46
Name: Andrey
thorbeorn wrote:
(кроме Сепультуры).

Опа. А чего так? :shok:
A вот, к примеру, Sarcofago тоже не нравятся? :oops:

_________________


Top
 Profile E-mail  
 
 
PostPosted: 02 Aug 2015 
Генеральный thrasher
User avatar
Joined: 03 Oct 2008
Posts: 3717
Lоcаtion: Ханты-Мансийский АО
Age: 44
Name: Сергей
,Андрюх,ну не люблю я Сепу.Правда полнометражники записанные с Максом стоят на полке.И то поменялся с кем-то,не покупал.Редко могу послушать Beneath The Remains и Arise. :pardon: А Sarcofago тут при чём?Их я уважаю.


Top
 Profile  
 
 
PostPosted: 02 Aug 2015 
Хиппей (support team)
User avatar
Joined: 30 Jul 2007
Posts: 114007
Lоcаtion: Киев (Kyiv, UA)
Age: 46
Name: Andrey
Саркофаго, это ж, по сути, почти Сепалька и есть :pardon:

_________________


Top
 Profile E-mail  
 
 
PostPosted: 02 Aug 2015 
Персональный статус
Joined: 19 Jul 2010
Posts: 282
Lоcаtion: Москва
Name: Вадим
Спасибо. Я не любитель бразильского треша


А я любитель...Нет, скажем так, не любитель,а рьяный поклонник именно бразильского трэша (кроме Сепультуры).

Бывает так. :-)) У меня как раз Арайс сепультуровский - один из двух слушаемых креативов бразильской трешсцены. Второй - овердозовский Circus Of Death.


Top
 Profile E-mail  
 
 
PostPosted: 02 Aug 2015 
А может смените мне статус?..
User avatar
Joined: 02 Feb 2009
Posts: 999
Lоcаtion: из Тулы
Age: 45
Name: Максим
альбом охрененен
спасибо Серега, предпочитаю на виниле слушать, но с сим ознакомился, звук нормальный

_________________
КМА


Top
 Profile  
 
 
PostPosted: 03 Aug 2015 
Генеральный thrasher
User avatar
Joined: 03 Oct 2008
Posts: 3717
Lоcаtion: Ханты-Мансийский АО
Age: 44
Name: Сергей
И винил хорош по качеству и сидюк вполне неплох.Ещё этот альбом переиздан лейблом Secret Service и содержит плюсом ещё два бонуса One World (Anthrax) и Stay Clean (Motorhead).


Top
 Profile  
 
Display posts from previous:  Sort by  
Post new topic Reply to topic  [ 14 posts ] 

All times are UTC + 3 hours


Who is online

Users browsing this forum: No registered users and 3 guests


You cannot post new topics in this forum
You cannot reply to topics in this forum
You cannot edit your posts in this forum
You cannot delete your posts in this forum
You cannot post attachments in this forum

Search for:
Яндекс.Метрика
Powered by phpBB © 2000, 2002, 2005, 2007 phpBB Group