\m/ 80's metal \m/

Информационно-аналитический форум "80 см пыли" (In Search We Trust) "У нас никто никуда не спешит"
Me For You - http://me-4u.com
It is currently 26 Apr 2019

All times are UTC + 3 hours

Spoiler
Chat - temporary registration for foreign users (please leave your application here)







Post new topic Reply to topic  [ 22 posts ]  Go to page 1, 2  Next
Author Message
 
PostPosted: 28 May 2015 
Я набрал 1000 сообщений!
Joined: 24 Oct 2009
Posts: 2199
Lоcаtion: Оренбург
Age: 55
Name: Юра
Ищу лося
Lies Of Smiles - Cross & Claw 2012 (UK)

Image

Состав:
Chris Wing - Bass
Keeth Naylor - Drums
Dave Little - Guitars (ex-Axis)
Pat O'Neill - Guitars (ex-Black Rose)
Tony Thurlow - Vocals (Skiltron (live), ex-Berlyn, ex-Panama, ex-Sahara, ex-The Pack)

Треклист:

01. Something Wicked (This Way Comes)
02. Fallen
03. Dream a Dream
04. Torre De Angeles (Tower of Angels)
05. Death from Above (Divine Wind)
06. Stone Cold
07. ... Of Time and Stars
08. Just a Man
09. The War Hound and the Worlds Pain

Всем откликнувшимся будет большой :thanx:

_________________
:dash: I am happy!


Top
 Profile E-mail  
 
 
PostPosted: 28 May 2015 
Хиппей (support team)
User avatar
Joined: 30 Jul 2007
Posts: 111863
Lоcаtion: Киев (Kyiv, UA)
Age: 45
Name: Andrey
uriyy wrote:
Tony Thurlow

О, Димкин брат? :lob:

_________________


Top
 Profile E-mail  
 
 
PostPosted: 09 Sep 2015 
Работнечег
User avatar
Joined: 28 Aug 2007
Posts: 5819
Lоcаtion: г. Москва
Age: 30
Name: Дима
:benya: вряд ли


Top
 Profile E-mail  
 
 
PostPosted: 12 Jun 2017 
Работнечег
User avatar
Joined: 28 Aug 2007
Posts: 5819
Lоcаtion: г. Москва
Age: 30
Name: Дима
Image

Label: Independent
Genre: Hard Rock
Coutry: UK
Format: Flac + Log + Cue + Covers
Size: 320 Mb

Line-Up:
Chris Wing - Bass
Keeth Naylor - Drums
Dave Little - Guitars (ex-Axis)
Pat O'Neill - Guitars (ex-Black Rose)
Tony Thurlow - Vocals (Skiltron (live), ex-Berlyn, ex-Panama, ex-Sahara, ex-The Pack)


Tracklist:
1. Something Wicked (This Way Comes) 01:37
2. Fallen 06:45
3. Dream a Dream 00:55
4. Torre de Ángeles (Tower of Angels) 05:13
5. Death from Above (Divine Wind) 08:09
6. Stone Cold 04:24
7. ...of Time & Stars 00:47
8. Just a Man 05:13
9. Warhound & the World's Pain 07:58

Yadi



Давненько уже прикупили с Юрой, забыли тему закрыть. Хороший альбом, послушать можно и не раз. Кому нужен будет альбом 2015 года, говорите, выложу.


Top
 Profile E-mail  
 
 
PostPosted: 13 Jun 2017 
Я набрал 1000 сообщений!
Joined: 24 Oct 2009
Posts: 2199
Lоcаtion: Оренбург
Age: 55
Name: Юра
О, Дим спасибо! :thanx: Тоже руки ни как не дойдут...

_________________
:dash: I am happy!


Top
 Profile E-mail  
 
 
PostPosted: 13 Jun 2017 
Работнечег
User avatar
Joined: 28 Aug 2007
Posts: 5819
Lоcаtion: г. Москва
Age: 30
Name: Дима
Ты так и не послушал? :shok: :crazy:


Top
 Profile E-mail  
 
 
PostPosted: 13 Jun 2017 
Я набрал 1000 сообщений!
Joined: 24 Oct 2009
Posts: 2199
Lоcаtion: Оренбург
Age: 55
Name: Юра
Не..., слушал когда получил, а потом чёт убрал и .... :crazy:

_________________
:dash: I am happy!


Top
 Profile E-mail  
 
 
PostPosted: 13 Jun 2017 
Хиппей (support team)
User avatar
Joined: 30 Jul 2007
Posts: 111863
Lоcаtion: Киев (Kyiv, UA)
Age: 45
Name: Andrey
:thanx:

mirror: Turbo l Depos l M-Cloud l Drop

_________________


Top
 Profile E-mail  
 
 
PostPosted: 14 Jun 2017 
Хиппей (support team)
User avatar
Joined: 30 Jul 2007
Posts: 111863
Lоcаtion: Киев (Kyiv, UA)
Age: 45
Name: Andrey
Взрослый степенной и медлительный (размеренный) Hard Rock c элементами Heavy Metal.
В общем, такой себе очередной вариант чуть утяжелённого Дип Пурпле района 1995 года.
Вокал тоже в духе Дио + Гленн Хьюза + Ковердэйл.

6/10

_________________


Top
 Profile E-mail  
 
 
PostPosted: 14 Jun 2017 
Хиппей (support team)
User avatar
Joined: 30 Jul 2007
Posts: 111863
Lоcаtion: Киев (Kyiv, UA)
Age: 45
Name: Andrey
church wrote:
Кому нужен будет альбом 2015 года, говорите, выложу.

Дим, а давай, если время будет :kro: Вдруг они там утяжелились...

_________________


Top
 Profile E-mail  
 
 
PostPosted: 14 Jun 2017 
Я набрал 1000 сообщений!
Joined: 24 Oct 2009
Posts: 2199
Lоcаtion: Оренбург
Age: 55
Name: Юра
По моему замедлились... :benya:

_________________
:dash: I am happy!


Top
 Profile E-mail  
 
 
PostPosted: 14 Jun 2017 
Хиппей (support team)
User avatar
Joined: 30 Jul 2007
Posts: 111863
Lоcаtion: Киев (Kyiv, UA)
Age: 45
Name: Andrey
Да? Тогда я не представляю, как такую нудятину можно будет слушать.
Но попробую :dance:

_________________


Top
 Profile E-mail  
 
 
PostPosted: 30 Jul 2017 
Работнечег
User avatar
Joined: 28 Aug 2007
Posts: 5819
Lоcаtion: г. Москва
Age: 30
Name: Дима
Lies Of Smiles - Dreams of the Machinoix (2015)

Image

Label: Independent
Genre: Hard Rock
Coutry: UK
Format: Flac + Log + Cue + Covers
Size: 385 Mb

Tracklist:
1. Dreams of the Machinoix 00:44
2. Jerusalem Man 05:33
3. Cast the First Stone 04:20
4. The Blood Red Game 09:43
5. All Fall Down 05:25
6. Dreamcatcher 07:12
7. She Wears a Mask 04:38
8. God & Honour 06:25
9. Ezekiels Wheel..... 05:06
10. ....Ascension 03:04

LOG
Exact Audio Copy V0.99 prebeta 5 from 4. May 2009

EAC extraction logfile from 1. May 2016, 22:06

Lies Of Smiles / Dreams Of The Machinoix

Used drive : PIONEER DVD-RW DVR-221 Adapter: 2 ID: 1

Read mode : Secure
Utilize accurate stream : Yes
Defeat audio cache : Yes
Make use of C2 pointers : No

Read offset correction : 6
Overread into Lead-In and Lead-Out : No
Fill up missing offset samples with silence : Yes
Delete leading and trailing silent blocks : No
Null samples used in CRC calculations : Yes
Used interface : Native Win32 interface for Win NT & 2000

Used output format : User Defined Encoder
Selected bitrate : 32 kBit/s
Quality : High
Add ID3 tag : No
Command line compressor : C:\Program Files\Exact Audio Copy\Flac\flac.exe
Additional command line options : -6 -V %s


TOC of the extracted CD

Track | Start | Length | Start sector | End sector
---------------------------------------------------------
1 | 0:00.00 | 0:44.66 | 0 | 3365
2 | 0:44.66 | 5:34.13 | 3366 | 28428
3 | 6:19.04 | 4:21.09 | 28429 | 48012
4 | 10:40.13 | 9:44.06 | 48013 | 91818
5 | 20:24.19 | 5:24.72 | 91819 | 116190
6 | 25:49.16 | 7:12.50 | 116191 | 148640
7 | 33:01.66 | 4:38.49 | 148641 | 169539
8 | 37:40.40 | 6:25.43 | 169540 | 198457
9 | 44:06.08 | 5:07.05 | 198458 | 221487
10 | 49:13.13 | 3:05.14 | 221488 | 235376


Range status and errors

Selected range

Filename D:\Музыка\Lossless\Lies Of Smiles - Dreams Of The Machinox (2015)\Lies Of Smiles - Dreams Of The Machinoix.wav

Peak level 100.0 %
Range quality 99.9 %
Copy CRC B7EBD176
Copy OK

No errors occurred


AccurateRip summary

Track 1 not present in database
Track 2 not present in database
Track 3 not present in database
Track 4 not present in database
Track 5 not present in database
Track 6 not present in database
Track 7 not present in database
Track 8 not present in database
Track 9 not present in database
Track 10 not present in database

None of the tracks are present in the AccurateRip database

End of status report

CUE
REM GENRE Rock
REM DATE 2015
REM DISCID 850C420A
REM COMMENT "ExactAudioCopy v0.99pb5"
PERFORMER "Lies Of Smiles"
TITLE "Dreams Of The Machinoix"
FILE "Lies Of Smiles - Dreams Of The Machinoix.flac" WAVE
TRACK 01 AUDIO
TITLE "Dreams Of The Machinoix"
PERFORMER "Lies Of Smiles"
FLAGS DCP
INDEX 01 00:00:00
TRACK 02 AUDIO
TITLE "Jerusalem Man"
PERFORMER "Lies Of Smiles"
FLAGS DCP
INDEX 01 00:44:66
TRACK 03 AUDIO
TITLE "Cast The First Stone"
PERFORMER "Lies Of Smiles"
FLAGS DCP
INDEX 01 06:19:04
TRACK 04 AUDIO
TITLE "The Blood Red Game"
PERFORMER "Lies Of Smiles"
FLAGS DCP
INDEX 01 10:40:13
TRACK 05 AUDIO
TITLE "All Fall Down"
PERFORMER "Lies Of Smiles"
FLAGS DCP
INDEX 01 20:24:19
TRACK 06 AUDIO
TITLE "Dreamcatcher"
PERFORMER "Lies Of Smiles"
FLAGS DCP
INDEX 01 25:49:16
TRACK 07 AUDIO
TITLE "She Wears A Mask"
PERFORMER "Lies Of Smiles"
FLAGS DCP
INDEX 01 33:01:66
TRACK 08 AUDIO
TITLE "God And Honour"
PERFORMER "Lies Of Smiles"
FLAGS DCP
INDEX 01 37:40:40
TRACK 09 AUDIO
TITLE "Ezekiel's Wheel"
PERFORMER "Lies Of Smiles"
FLAGS DCP
INDEX 01 44:06:08
TRACK 10 AUDIO
TITLE "Ascension"
PERFORMER "Lies Of Smiles"
FLAGS DCP
INDEX 01 49:13:13


Yadi


Top
 Profile E-mail  
 
 
PostPosted: 10 Mar 2018 
Хиппей (support team)
User avatar
Joined: 30 Jul 2007
Posts: 111863
Lоcаtion: Киев (Kyiv, UA)
Age: 45
Name: Andrey
:thanx:

mirror: Giga l Drop l Narod l M-Cloud

_________________


Top
 Profile E-mail  
 
 
PostPosted: 11 Mar 2018 
Хиппей (support team)
User avatar
Joined: 30 Jul 2007
Posts: 111863
Lоcаtion: Киев (Kyiv, UA)
Age: 45
Name: Andrey
church wrote:
Lies Of Smiles - Dreams of the Machinoix (2015)

Слушал вчера на сон нагрянувший этот альбом. Сразу бросился в ухи вокал ака Тони Мартин (или же облегчённый вариант Дио), и подумалось - а авось сама музыка как-то это неудобство перекроет своей красотой. И.. вырубился на 3-4-й песне спать.
Сейчас второй раз гоняю альбом подряд - не, увы, чудо даже не распухло. Обычный очередной клон под Black Sabbath 90-х с Тони Мартино-клоном на вокале :(

Без оценки.

_________________


Top
 Profile E-mail  
 
 
PostPosted: 11 Mar 2018 
Хиппей (support team)
User avatar
Joined: 30 Jul 2007
Posts: 111863
Lоcаtion: Киев (Kyiv, UA)
Age: 45
Name: Andrey
Ха-ха, тыкнул в первую же песню группы на Ютубе и.. https://www.youtube.com/watch?v=zH1QCkviM_U
Увидел там свой каммент :crazy:
Какой же я всюдусрун :kro:

_________________


Top
 Profile E-mail  
 
 
PostPosted: 11 Mar 2018 
Работнечег
User avatar
Joined: 28 Aug 2007
Posts: 5819
Lоcаtion: г. Москва
Age: 30
Name: Дима
Ха-ха,
Какой же я всюдусрун :kro:

Срочно меняй подпись на аватарке :crazy: :crazy:


Top
 Profile E-mail  
 
 
PostPosted: 12 Mar 2018 
Хиппей (support team)
User avatar
Joined: 30 Jul 2007
Posts: 111863
Lоcаtion: Киев (Kyiv, UA)
Age: 45
Name: Andrey
А как это будет на английском?

Shitoaller? :vic:

_________________


Top
 Profile E-mail  
 
 
PostPosted: 12 Mar 2018 
семерых одним ударом
Joined: 18 Aug 2007
Posts: 3981
Lоcаtion: Владивосток
Age: 43
Name: Николай Николаевич
Scatterbrain wrote:
Какой же я всюдусрун

ха ха, пришла пора для откровенных признаний? :benya: :benya: :benya: :benya:


Top
 Profile  
 
 
PostPosted: 12 Mar 2018 
Хиппей (support team)
User avatar
Joined: 30 Jul 2007
Posts: 111863
Lоcаtion: Киев (Kyiv, UA)
Age: 45
Name: Andrey
Scatterbrain wrote:
Какой же я всюдусрун

ха ха, пришла пора для откровенных признаний? :benya: :benya: :benya: :benya:

Не понял, а когда я "кривил душой"?
Ты, кстати, на данный момент второй всюдусрун. Правда, пока сужу по данному форуму =) Почти всюду в темах отмечаться успеваешь :thanx:

_________________


Top
 Profile E-mail  
 
Display posts from previous:  Sort by  
Post new topic Reply to topic  [ 22 posts ]  Go to page 1, 2  Next

All times are UTC + 3 hours


Who is online

Users browsing this forum: No registered users and 1 guest


You cannot post new topics in this forum
You cannot reply to topics in this forum
You cannot edit your posts in this forum
You cannot delete your posts in this forum
You cannot post attachments in this forum

Search for:
Яндекс.Метрика
Powered by phpBB © 2000, 2002, 2005, 2007 phpBB Group