\m/ 80's metal \m/

Информационно-аналитический форум "80 см пыли" (In Search We Trust) "У нас никто никуда не спешит"
Me For You - http://me-4u.com
It is currently 25 Aug 2019

All times are UTC + 3 hours

Spoiler
Chat - temporary registration for foreign users (please leave your application here)







Post new topic Reply to topic  [ 3 posts ] 
Author Message
 
PostPosted: 13 May 2015 
Генеральный thrasher
User avatar
Joined: 03 Oct 2008
Posts: 3719
Lоcаtion: Ханты-Мансийский АО
Age: 44
Name: Сергей
Ещё маленько бразильской классики

Image

Year:1989 (2012 Re-Issue
Style:Thrash Metal
Country:Brazil
Audio:Flac+Cue+Log+Scans
Size:478Mb
Source:my CD
Label:Fonomidia

Line-Up:
Carlos "Lots" - guitars
Flávio Soares - vocals,bass
Alexandre Colletti - guitars
Danilo Pizzato - drums

Tracklist:
01. The Last Supper 05:13
02. Live Free Or Die 04:51
03. A.I.D.S. 05:07
04. Bred To Die 05:08
05. Echoes From The Past 06:27
06. Pilgrimage To Insanity 05:40
07. Pimponetta 00:54
08. Spanish Blood 07:27
Bonus Tracks - Thrash Your Brain (demo)
09. Elegy To Tyrants 06:17
10. Sacred Sin 03:51
11. Salvation 05:54

"Cue"
REM GENRE "Thrash Metal"
REM DATE 2012
REM DISCID 850D6A0B
REM COMMENT "ExactAudioCopy v0.99pb5"
PERFORMER "Leviaethan"
TITLE "Smile"
FILE "Leviaethan - Smile.flac" WAVE
TRACK 01 AUDIO
TITLE "The Last Supper"
PERFORMER "Leviaethan"
FLAGS DCP
INDEX 01 00:00:00
TRACK 02 AUDIO
TITLE "Live Free Or Die"
PERFORMER "Leviaethan"
FLAGS DCP
INDEX 00 05:13:33
INDEX 01 05:15:33
TRACK 03 AUDIO
TITLE "A.I.D.S."
PERFORMER "Leviaethan"
FLAGS DCP
INDEX 00 10:07:01
INDEX 01 10:09:01
TRACK 04 AUDIO
TITLE "Bred To Die"
PERFORMER "Leviaethan"
FLAGS DCP
INDEX 00 15:16:20
INDEX 01 15:18:20
TRACK 05 AUDIO
TITLE "Echoes From The Past"
PERFORMER "Leviaethan"
FLAGS DCP
INDEX 00 20:26:51
INDEX 01 20:28:51
TRACK 06 AUDIO
TITLE "Pilgrimage To Insanity"
PERFORMER "Leviaethan"
FLAGS DCP
INDEX 00 26:56:36
INDEX 01 26:58:36
TRACK 07 AUDIO
TITLE "Pimponetta"
PERFORMER "Leviaethan"
FLAGS DCP
INDEX 00 32:39:11
INDEX 01 32:41:11
TRACK 08 AUDIO
TITLE "Spanish Blood"
PERFORMER "Leviaethan"
FLAGS DCP
INDEX 00 33:35:43
INDEX 01 33:37:43
TRACK 09 AUDIO
TITLE "Elegy To Tyrants"
PERFORMER "Leviaethan"
FLAGS DCP
INDEX 00 41:05:14
INDEX 01 41:07:14
TRACK 10 AUDIO
TITLE "Sacred Sin"
PERFORMER "Leviaethan"
FLAGS DCP
INDEX 00 47:24:30
INDEX 01 47:26:30
TRACK 11 AUDIO
TITLE "Salvation"
PERFORMER "Leviaethan"
FLAGS DCP
INDEX 00 51:17:62
INDEX 01 51:19:62

"Log"
Exact Audio Copy V0.99 prebeta 5 from 4. May 2009

Отчёт EAC об извлечении, выполненном 12. мая 2015, 10:19

Leviaethan / Smile

Дисковод: MATSHITADVD-RAM UJ8A0AS Adapter: 0 ID: 1

Режим чтения : Достоверность
Использование точного потока : Да
Отключение кэша аудио : Да
Использование указателей C2 : Нет

Коррекция смещения при чтении : 102
Способность читать области Lead-in и Lead-out : Нет
Заполнение пропущенных сэмплов тишиной : Да
Удаление блоков с тишиной в начале и конце : Нет
При вычислениях CRC использовались нулевые сэмплы : Да
Интерфейс : Встроенный Win32-интерфейс для Win NT/2000

Выходной формат : Пользовательский кодировщик
Выбранный битрейт : 1024 kBit/s
Качество : Высокий
Добавление ID3-тэга : Нет
Утилита сжатия : C:\Program Files\Exact Audio Copy\FLAC\FLAC.EXE
Дополнительные параметры : -6 -V -T "ARTIST=%a" -T "TITLE=%t" -T "ALBUM=%g" -T "DATE=%y" -T "TRACKNUMBER=%n" -T "GENRE=%m" -T "COMMENT=%e" %s -o %d


TOC извлечённого CD

Трек | Старт | Длительность | Начальный сектор | Конечный сектор
---------------------------------------------------------------------
1 | 0:00.00 | 5:15.33 | 0 | 23657
2 | 5:15.33 | 4:53.43 | 23658 | 45675
3 | 10:09.01 | 5:09.19 | 45676 | 68869
4 | 15:18.20 | 5:10.31 | 68870 | 92150
5 | 20:28.51 | 6:29.60 | 92151 | 121385
6 | 26:58.36 | 5:42.50 | 121386 | 147085
7 | 32:41.11 | 0:56.32 | 147086 | 151317
8 | 33:37.43 | 7:29.46 | 151318 | 185038
9 | 41:07.14 | 6:19.16 | 185039 | 213479
10 | 47:26.30 | 3:53.32 | 213480 | 230986
11 | 51:19.62 | 5:54.51 | 230987 | 257587


Характеристики диапазона извлечения и сообщения об ошибках

Выбранный диапазон

Имя файла C:\Users\эксперт\Music\Leviaethan - Smile.wav

Пиковый уровень 100.0 %
Качество диапазона 100.0 %
CRC копии 763EAF51
Копирование... OK

Ошибок не произошло


AccurateRip: сводка

Трек 1 нет в базе данных
Трек 2 нет в базе данных
Трек 3 нет в базе данных
Трек 4 нет в базе данных
Трек 5 нет в базе данных
Трек 6 нет в базе данных
Трек 7 нет в базе данных
Трек 8 нет в базе данных
Трек 9 нет в базе данных
Трек 10 нет в базе данных
Трек 11 нет в базе данных

Ни одного трека нет в базе AccurateRip

Конец отчёта


Smile!


Top
 Profile  
 
 
PostPosted: 13 May 2015 
Прокъмитолист
User avatar
Joined: 12 Aug 2007
Posts: 6593
Lоcаtion: Санктъ-Петербуркъ
Age: 51
Name: Олекъ
спасибо! :thanx:

_________________
прокъметол - это музыко, от которово есть прок (ы)


Top
 Profile  
 
 
PostPosted: 13 May 2015 
ТрэшЭрос
User avatar
Joined: 18 Jul 2011
Posts: 2304
Lоcаtion: Гулькевичи
Age: 44
Name: Александр
:thanx: :true:

_________________
Thrash no trash!!!


Top
 Profile E-mail  
 
Display posts from previous:  Sort by  
Post new topic Reply to topic  [ 3 posts ] 

All times are UTC + 3 hours


Who is online

Users browsing this forum: No registered users and 1 guest


You cannot post new topics in this forum
You cannot reply to topics in this forum
You cannot edit your posts in this forum
You cannot delete your posts in this forum
You cannot post attachments in this forum

Search for:
Яндекс.Метрика
cron
Powered by phpBB © 2000, 2002, 2005, 2007 phpBB Group