\m/ 80's metal \m/

Информационно-аналитический форум "80 см пыли" (In Search We Trust) "У нас никто никуда не спешит"
Me For You - http://me-4u.com
It is currently 20 Aug 2019

All times are UTC + 3 hours

Spoiler
Chat - temporary registration for foreign users (please leave your application here)







Post new topic Reply to topic  [ 11 posts ] 
Author Message
 
PostPosted: 04 Aug 2013 
Хиппей (support team)
User avatar
Joined: 30 Jul 2007
Posts: 114007
Lоcаtion: Киев (Kyiv, UA)
Age: 46
Name: Andrey
Lefay - 1999 - Symphony Of The Damned [ape]

Image

Genre: Power Metal
Location: Sweden
Format: ape + cue + log + scans
Source: MMT (ripped by ilijan :thanx: )


Line-up:
Charles Rytkönen - vocals
Tony Eriksson - guitars
Peter Grehn - guitars
Micke Åsentorp - bass
Robin Engström - drums

    1. The Whore of Babylon - 06:23
    2. Symphony of the Damned - 06:43
    3. Fatal Illusions - 05:14
    4. Last Rites - 04:57
    5. Lullaby - 05:20
    6. The Secret Doctrine - (instrumental) - 05:52
    7. Tequila - 03:13
    8. Catacombs - 06:05
    9. War Without End - 03:23
    10. Crazy (Nazareth cover) (bonus track) - 03:22
    11. Captain Howdy (Twisted Sister cover) (bonus track) - 03:45
    12. Strange Way (Kiss cover) (bonus track) - 03:36
    13. Cocaine (Eric Clapton cover) (bonus track) - 04:34

    TPT: 62:27

F-Bit l Narod

Вчера в другом топике на этом форуме высказал своё удивление, почему вдруг дебютный альбом группы Morgana Lefay народ ценит выше, нежели последующий за ним. Теперь же не могу понять, зачем эту перезапись с бонусами под новым именем оценивают еще ниже :vic:
На самом деле мне этот и тот альбом не так и понравились. Так, несколько композиций в ухо запали своими буйными хоральными бэками да надрывным вокалом Риткёнена. Одна скоростная вещь - слишком уж мало :fingal:
Здесь хоть звучок немного и модноват (не модерновый павер здесь, а как раз в духе начала 90-х), но перезапись все же пошла на пользу. И бонусы его как раз еще больше скрасили. Но... всё равно оценочку поставлю едва выше средней :pardon:

6/10

log
Exact Audio Copy V0.99 prebeta 4 from 23. January 2008

EAC extraction logfile from 28. March 2009, 18:27

Lefay / Symphony Of The Damned

Used drive : ATAPI DVD A DH20A4P Adapter: 3 ID: 0

Read mode : Secure
Utilize accurate stream : Yes
Defeat audio cache : Yes
Make use of C2 pointers : No

Read offset correction : 6
Overread into Lead-In and Lead-Out : No
Fill up missing offset samples with silence : Yes
Delete leading and trailing silent blocks : No
Null samples used in CRC calculations : Yes
Used interface : Installed external ASPI interface

Used output format : Monkey's Audio Lossless Encoder
Selected bitrate : High Lossless Compression
Quality : High
Add ID3 tag : Yes
Command line compressor : C:\Program Files\Monkey's Audio\MAC.exe


TOC of the extracted CD

Track | Start | Length | Start sector | End sector
---------------------------------------------------------
1 | 0:00.00 | 6:23.33 | 0 | 28757
2 | 6:23.33 | 6:43.33 | 28758 | 59015
3 | 13:06.66 | 5:14.27 | 59016 | 82592
4 | 18:21.18 | 4:57.39 | 82593 | 104906
5 | 23:18.57 | 5:20.07 | 104907 | 128913
6 | 28:38.64 | 5:52.59 | 128914 | 155372
7 | 34:31.48 | 3:13.10 | 155373 | 169857
8 | 37:44.58 | 6:05.46 | 169858 | 197278
9 | 43:50.29 | 3:22.74 | 197279 | 212502
10 | 47:13.28 | 3:22.10 | 212503 | 227662
11 | 50:35.38 | 3:44.44 | 227663 | 244506
12 | 54:20.07 | 3:36.55 | 244507 | 260761
13 | 57:56.62 | 4:33.18 | 260762 | 281254


Range status and errors

Selected range

Filename D:\Download\Lefay - Symphony Of The Damned.wav

Peak level 100.0 %
Range quality 100.0 %
Copy CRC 63596AC9
Copy OK

No errors occurred


AccurateRip summary

Track 1 accurately ripped (confidence 2) [D53488EA]
Track 2 accurately ripped (confidence 2) [814CFCCF]
Track 3 accurately ripped (confidence 2) [CA7DFAFE]
Track 4 accurately ripped (confidence 2) [DAFBED9A]
Track 5 accurately ripped (confidence 2) [191A0244]
Track 6 not present in database
Track 7 not present in database
Track 8 accurately ripped (confidence 2) [FB52AAA7]
Track 9 accurately ripped (confidence 2) [A56EDFDE]
Track 10 not present in database
Track 11 accurately ripped (confidence 2) [2DE52E8E]
Track 12 not present in database
Track 13 not present in database

8 track(s) accurately ripped
5 track(s) not present in the AccurateRip database

Some tracks could not be verified as accurate

End of status report

cue
REM GENRE Metal
REM DATE 1999
REM DISCID A80EA60D
REM COMMENT "ExactAudioCopy v0.99pb4"
PERFORMER "Lefay"
TITLE "Symphony Of The Damned"
FILE "Lefay - Symphony Of The Damned.ape" WAVE
TRACK 01 AUDIO
TITLE "The Whore Of Babylon"
PERFORMER "Lefay"
INDEX 01 00:00:00
TRACK 02 AUDIO
TITLE "Symphony Of The Damned"
PERFORMER "Lefay"
INDEX 01 06:23:33
TRACK 03 AUDIO
TITLE "Fatal Illusions"
PERFORMER "Lefay"
INDEX 01 13:06:66
TRACK 04 AUDIO
TITLE "Last Rites"
PERFORMER "Lefay"
INDEX 01 18:21:18
TRACK 05 AUDIO
TITLE "Lullaby"
PERFORMER "Lefay"
INDEX 01 23:18:57
TRACK 06 AUDIO
TITLE "The Secret Doctrine"
PERFORMER "Lefay"
INDEX 01 28:38:64
TRACK 07 AUDIO
TITLE "Tequila"
PERFORMER "Lefay"
INDEX 01 34:31:48
TRACK 08 AUDIO
TITLE "Catacombs"
PERFORMER "Lefay"
INDEX 01 37:44:58
TRACK 09 AUDIO
TITLE "War Without End"
PERFORMER "Lefay"
INDEX 01 43:50:29
TRACK 10 AUDIO
TITLE "Crazy"
PERFORMER "Lefay"
INDEX 01 47:13:28
TRACK 11 AUDIO
TITLE "Captain Howdy"
PERFORMER "Lefay"
INDEX 01 50:35:38
TRACK 12 AUDIO
TITLE "Strange Way"
PERFORMER "Lefay"
INDEX 01 54:20:07
TRACK 13 AUDIO
TITLE "Cocaine"
PERFORMER "Lefay"
INDEX 01 57:56:62

_________________


Top
 Profile E-mail  
 
 
PostPosted: 04 Aug 2013 
\m/ 80 см сала \m/
User avatar
Joined: 12 Mar 2012
Posts: 2590
Age: 26
Name: Nick
:thanx:
Еще Morgana Lefay - 1993 - Knowing Just As I с рутрекера залить могёте?

_________________
1990 AUROPHON BRAINSTORM (Germany) - lossless
1994 MAUSOLEUM CLASSIX (Belgium-Germany) - lossless
1998 VA - GRIM HARVEST - Complete Metal Massacre Volumes I-XII


Top
 Profile  
 
 
PostPosted: 04 Aug 2013 
Хиппей (support team)
User avatar
Joined: 30 Jul 2007
Posts: 114007
Lоcаtion: Киев (Kyiv, UA)
Age: 46
Name: Andrey
Дык, забил ссылку в торрент и я туго :oops:

_________________


Top
 Profile E-mail  
 
 
PostPosted: 04 Aug 2013 
\m/ 80 см сала \m/
User avatar
Joined: 12 Mar 2012
Posts: 2590
Age: 26
Name: Nick
Дык, молчит уже сутки - вполне вероятно, что проблемы на моей стороне (такое раньше бывало), но вот незадача - что-нибудь другое с рутрекера качаеццо, в отличие от этого злополучного альбома :vic:
А вообще, все сюда, бьістро :benya:

_________________
1990 AUROPHON BRAINSTORM (Germany) - lossless
1994 MAUSOLEUM CLASSIX (Belgium-Germany) - lossless
1998 VA - GRIM HARVEST - Complete Metal Massacre Volumes I-XII


Top
 Profile  
 
 
PostPosted: 04 Aug 2013 
Хиппей (support team)
User avatar
Joined: 30 Jul 2007
Posts: 114007
Lоcаtion: Киев (Kyiv, UA)
Age: 46
Name: Andrey
Сюда, туда... Там Серёга явно рипнет лиск =)

А этот лось с трэкера стоит на 77%. Мож ему попить вынести? :bodun:

_________________


Top
 Profile E-mail  
 
 
PostPosted: 04 Aug 2013 
\m/ 80 см сала \m/
User avatar
Joined: 12 Mar 2012
Posts: 2590
Age: 26
Name: Nick
Вы только аккуратно, лось - скотина нежная и пугливая, может и того, эц самое :nofuck:

_________________
1990 AUROPHON BRAINSTORM (Germany) - lossless
1994 MAUSOLEUM CLASSIX (Belgium-Germany) - lossless
1998 VA - GRIM HARVEST - Complete Metal Massacre Volumes I-XII


Top
 Profile  
 
 
PostPosted: 04 Aug 2013 
Хиппей (support team)
User avatar
Joined: 30 Jul 2007
Posts: 114007
Lоcаtion: Киев (Kyiv, UA)
Age: 46
Name: Andrey
Скочалсо :dance:

Николай, прекрати нас называть меня на Вы :shok: :crazy:

_________________


Top
 Profile E-mail  
 
 
PostPosted: 04 Aug 2013 
\m/ 80 см сала \m/
User avatar
Joined: 12 Mar 2012
Posts: 2590
Age: 26
Name: Nick
Хорошо, не буду вас тебя называть на Вы :crazy:

_________________
1990 AUROPHON BRAINSTORM (Germany) - lossless
1994 MAUSOLEUM CLASSIX (Belgium-Germany) - lossless
1998 VA - GRIM HARVEST - Complete Metal Massacre Volumes I-XII


Top
 Profile  
 
 
PostPosted: 04 Aug 2013 
Хиппей (support team)
User avatar
Joined: 30 Jul 2007
Posts: 114007
Lоcаtion: Киев (Kyiv, UA)
Age: 46
Name: Andrey
А ну давай порепетируем :fingal:

_________________


Top
 Profile E-mail  
 
 
PostPosted: 04 Aug 2013 
\m/ 80 см сала \m/
User avatar
Joined: 12 Mar 2012
Posts: 2590
Age: 26
Name: Nick
Андрей Саныч, ты уж извини, но я не виноват, что Динамо опять кротам слилось :fingal:
Норм?

_________________
1990 AUROPHON BRAINSTORM (Germany) - lossless
1994 MAUSOLEUM CLASSIX (Belgium-Germany) - lossless
1998 VA - GRIM HARVEST - Complete Metal Massacre Volumes I-XII


Top
 Profile  
 
 
PostPosted: 05 Aug 2013 
Хиппей (support team)
User avatar
Joined: 30 Jul 2007
Posts: 114007
Lоcаtion: Киев (Kyiv, UA)
Age: 46
Name: Andrey
Хреново :( :crazy:

_________________


Top
 Profile E-mail  
 
Display posts from previous:  Sort by  
Post new topic Reply to topic  [ 11 posts ] 

All times are UTC + 3 hours


Who is online

Users browsing this forum: No registered users and 2 guests


You cannot post new topics in this forum
You cannot reply to topics in this forum
You cannot edit your posts in this forum
You cannot delete your posts in this forum
You cannot post attachments in this forum

Search for:
Яндекс.Метрика
Powered by phpBB © 2000, 2002, 2005, 2007 phpBB Group