\m/ 80's metal \m/

Информационно-аналитический форум "80 см пыли" (In Search We Trust) "У нас никто никуда не спешит"
Me For You - http://me-4u.com
It is currently 23 Apr 2019

All times are UTC + 3 hours

Spoiler
Chat - temporary registration for foreign users (please leave your application here)







Post new topic Reply to topic  [ 9 posts ] 
Author Message
 
PostPosted: 16 May 2013 
Работнечег
User avatar
Joined: 28 Aug 2007
Posts: 5812
Lоcаtion: г. Москва
Age: 30
Name: Дима
Image

Band: Louis Cypher
Album: Cyphernation
Year: 2000
Label: TTS Media Music
Genre: Heavy Metal
Coutry: Germany
Format: Flac + Log + Cue + Covers
Size: 382 Mb

Line-Up:
Guido Michels - Vocals
Klaus Schlösser - Drums, Backing Vocals
Dieter Michels - Lead Guitar
Gordon Hiller - Bass
Ralf Conrad - Rhytm Guitar (Gorthaur's Wrath, Last One Dying, ex-Battlesword, ex-Critical Mass)


Tracklist:
1. Frontline 05:33
2. God of Illusion 05:35
3. Supernova 05:08
4. Allright 04:43
5. Evil 03:29
6. Anexia 06:00
7. White Light 05:39
8. Project Hope 05:36
9. Hybernation 07:57

LOG
Exact Audio Copy V0.99 prebeta 5 from 4. May 2009

EAC extraction logfile from 15. May 2013, 20:46

Louis Cypher / Cyphernation

Used drive : PIONEER DVD-RW DVR-116D Adapter: 0 ID: 0

Read mode : Secure
Utilize accurate stream : Yes
Defeat audio cache : Yes
Make use of C2 pointers : No

Read offset correction : 96
Overread into Lead-In and Lead-Out : No
Fill up missing offset samples with silence : Yes
Delete leading and trailing silent blocks : No
Null samples used in CRC calculations : Yes
Used interface : Native Win32 interface for Win NT & 2000

Used output format : User Defined Encoder
Selected bitrate : 32 kBit/s
Quality : High
Add ID3 tag : No
Command line compressor : C:\Program Files\Exact Audio Copy\Flac\flac.exe
Additional command line options : -6 -V %s


TOC of the extracted CD

Track | Start | Length | Start sector | End sector
---------------------------------------------------------
1 | 0:00.00 | 5:36.27 | 0 | 25226
2 | 5:36.27 | 5:36.58 | 25227 | 50484
3 | 11:13.10 | 5:09.30 | 50485 | 73689
4 | 16:22.40 | 4:44.60 | 73690 | 95049
5 | 21:07.25 | 3:31.02 | 95050 | 110876
6 | 24:38.27 | 6:01.03 | 110877 | 137954
7 | 30:39.30 | 5:40.57 | 137955 | 163511
8 | 36:20.12 | 5:36.08 | 163512 | 188719
9 | 41:56.20 | 7:57.10 | 188720 | 224504


Range status and errors

Selected range

Filename D:\Музыка\Lossless\Louis Cypher - Cyphernation (2000)\Louis Cypher - Cyphernation.wav

Peak level 99.9 %
Range quality 100.0 %
Copy CRC BAD59936
Copy OK

No errors occurred


AccurateRip summary

Track 1 not present in database
Track 2 not present in database
Track 3 not present in database
Track 4 not present in database
Track 5 not present in database
Track 6 not present in database
Track 7 not present in database
Track 8 not present in database
Track 9 not present in database

None of the tracks are present in the AccurateRip database

End of status report

CUE
REM GENRE Metal
REM DATE 2000
REM DISCID 810BB109
REM COMMENT "ExactAudioCopy v0.99pb5"
PERFORMER "Louis Cypher"
TITLE "Cyphernation"
FILE "Louis Cypher - Cyphernation.flac" WAVE
TRACK 01 AUDIO
TITLE "Frontline"
PERFORMER "Louis Cypher"
INDEX 01 00:00:00
TRACK 02 AUDIO
TITLE "God Of Illusion"
PERFORMER "Louis Cypher"
INDEX 00 05:33:22
INDEX 01 05:36:27
TRACK 03 AUDIO
TITLE "Supernova"
PERFORMER "Louis Cypher"
INDEX 00 11:11:47
INDEX 01 11:13:10
TRACK 04 AUDIO
TITLE "Alright"
PERFORMER "Louis Cypher"
INDEX 00 16:21:32
INDEX 01 16:22:40
TRACK 05 AUDIO
TITLE "Evil"
PERFORMER "Louis Cypher"
INDEX 00 21:05:60
INDEX 01 21:07:25
TRACK 06 AUDIO
TITLE "Anexia"
PERFORMER "Louis Cypher"
INDEX 00 24:36:52
INDEX 01 24:38:27
TRACK 07 AUDIO
TITLE "White Light"
PERFORMER "Louis Cypher"
INDEX 00 30:37:72
INDEX 01 30:39:30
TRACK 08 AUDIO
TITLE "Project Hope"
PERFORMER "Louis Cypher"
INDEX 00 36:18:37
INDEX 01 36:20:12
TRACK 09 AUDIO
TITLE "Highbernation"
PERFORMER "Louis Cypher"
INDEX 01 41:56:20


Rusfolder

phpBB [youtube]

phpBB [youtube]


Альбом конечно не шедевр, но очень понравился, так что советую ознакомиться ;)
Для ознакомления трэки со следующего альбома, немного более модернового по звучанию, нежели Cyphernation.


Top
 Profile E-mail  
 
 
PostPosted: 26 May 2013 
ТрэшЭрос
User avatar
Joined: 18 Jul 2011
Posts: 2303
Lоcаtion: Гулькевичи
Age: 44
Name: Александр
Дима, :thanx:
Прослушал ютубе - решил скачать :oops: Надеюсь на :true:

_________________
Thrash no trash!!!


Top
 Profile E-mail  
 
 
PostPosted: 28 May 2013 
Хиппей (support team)
User avatar
Joined: 30 Jul 2007
Posts: 111805
Lоcаtion: Киев (Kyiv, UA)
Age: 45
Name: Andrey
О, Клаус в составе. Качаю :thanx:

mirror: F-Bit l Narod

_________________


Top
 Profile E-mail  
 
 
PostPosted: 28 May 2013 
Хиппей (support team)
User avatar
Joined: 30 Jul 2007
Posts: 111805
Lоcаtion: Киев (Kyiv, UA)
Age: 45
Name: Andrey
Стрянно, но это действительно Heavy Metal :shok:
Немного странный и сонный, как я сейчас, медлительный, мелодично-надрывный, но не модняковый. Но в тоже время и не классический хэви, а... Не знаю, как точно обозвать этот стиль и с чем сравнить, но ритм-секция явно перегружена для хэви и катастрофически мне скоростных вещей не хватает :fingal:
Зато есть парочка очень задушевных песен, без соплей. Наоборот, мрачновато трушных :true:

5/10

То есть, бидон ровно на половину полон снизу :bodun: Но если посмотреть с другой стороны, то полон он сверху :umnik: А ежели перевернуть набок, то сбоку :esel:

зы. Диогена в бидоне не обнаружил :au:

_________________


Top
 Profile E-mail  
 
 
PostPosted: 28 May 2013 
Хиппей (support team)
User avatar
Joined: 30 Jul 2007
Posts: 111805
Lоcаtion: Киев (Kyiv, UA)
Age: 45
Name: Andrey
church wrote:
4. Allright

А, кстати. Напомните, плиз, на чью это песню кавер?
А то никак не вспомню :esel: :esel: :esel:
Не бритпоперов Сюпэрграсс точно :fingal:

_________________


Top
 Profile E-mail  
 
 
PostPosted: 28 May 2013 
Хиппей (support team)
User avatar
Joined: 30 Jul 2007
Posts: 111805
Lоcаtion: Киев (Kyiv, UA)
Age: 45
Name: Andrey
Тьху, шоб им всегда халву жрать половником, как я ща делаю :esel: :esel: :esel:

phpBB [youtube]


Добавил на М-А каверочег :fingal:

Теперь осталось выяснить, играла ли группа... Thrash Metal :pardon:

_________________


Top
 Profile E-mail  
 
 
PostPosted: 08 Jun 2013 
Работнечег
User avatar
Joined: 28 Aug 2007
Posts: 5812
Lоcаtion: г. Москва
Age: 30
Name: Дима
Не знаю, как точно обозвать этот стиль

У меня такая же проблема после прослушивания возникла :smile: но понравилось поболее, чем тебе, я бы 7/10 поставил)


Top
 Profile E-mail  
 
 
PostPosted: 08 Jun 2013 
Работнечег
User avatar
Joined: 28 Aug 2007
Posts: 5812
Lоcаtion: г. Москва
Age: 30
Name: Дима
Тьху, шоб им всегда халву жрать половником, как я ща делаю :esel: :esel: :esel:

phpBB [youtube]


Добавил на М-А каверочег :fingal:

Теперь осталось выяснить, играли ли группа... Thrash Metal :pardon:

Неплохо, они кавер забацали)) Хотя и оригинал тоже ничего)
Второй альбом есть, но его не слушал ещё, поэтому по поводу трэша вопрос остается открытым :pardon:


Top
 Profile E-mail  
 
 
PostPosted: 09 Jun 2013 
Хиппей (support team)
User avatar
Joined: 30 Jul 2007
Posts: 111805
Lоcаtion: Киев (Kyiv, UA)
Age: 45
Name: Andrey
church wrote:
поэтому по поводу трэша вопрос остается открытым

Угу. Что-то мне подсказывает, что не будет и там трэшу :fingal:

_________________


Top
 Profile E-mail  
 
Display posts from previous:  Sort by  
Post new topic Reply to topic  [ 9 posts ] 

All times are UTC + 3 hours


Who is online

Users browsing this forum: No registered users and 2 guests


You cannot post new topics in this forum
You cannot reply to topics in this forum
You cannot edit your posts in this forum
You cannot delete your posts in this forum
You cannot post attachments in this forum

Search for:
Яндекс.Метрика
Powered by phpBB © 2000, 2002, 2005, 2007 phpBB Group