\m/ 80's metal \m/

Информационно-аналитический форум "80 см пыли" (In Search We Trust) "У нас никто никуда не спешит"
Me For You - http://me-4u.com
It is currently 24 Apr 2019

All times are UTC + 3 hours

Spoiler
Chat - temporary registration for foreign users (please leave your application here)







Post new topic Reply to topic  [ 3 posts ] 
Author Message
 
PostPosted: 23 Feb 2013 
Хиппей (support team)
User avatar
Joined: 30 Jul 2007
Posts: 111829
Lоcаtion: Киев (Kyiv, UA)
Age: 45
Name: Andrey
Lizzy Borden - 1986 - Menace To Society [flac]

Image

Genre: Power Heavy
Location: USA
Format: flac + log + cue + scans
Size: 287 Mb


Line-up:

Lizzy Borden - vocals
Gene Allen - guitars
Alex Nelson - guitars, vocals (backing)
Mike Davis - bass
Joey Scott Harges - drums

    1. Generation Aliens - 04:30
    2. Notorious - 04:14
    3. Terror on the Town - 05:23
    4. Bloody Mary - 04:40
    5. Stiletto (Voice of Command) - 03:32
    6. Ultra Violence - 04:09
    7. Love Kills - 05:23
    8. Brass Tactics - 03:27
    9. Ursa Minor - 04:00
    10. Menace to Society - 04:08

    TPT: 43:26

Спёрто откуда-то :vic: Смотрим лог :dance:
Скорее всего рип Димки Иезуита :thanx:

mirror: MultiUp l Narod l F-Bit

Альбом весьма понравился. Эдакая очень качественная американская помесь Iron Maiden и немного Judas Priest в паверном виде :meloman:

7+/10

log
Exact Audio Copy V1.0 beta 3 from 29. August 2011

Отчёт EAC об извлечении, выполненном 1. августа 2012, 11:45

Lizzy Borden / Menace To Society [32XB-140]

Дисковод: Optiarc DVD RW AD-7200A Adapter: 0 ID: 0

Режим чтения : Достоверность
Использование точного потока : Да
Отключение кэша аудио : Да
Использование указателей C2 : Нет

Коррекция смещения при чтении : 48
Способность читать области Lead-in и Lead-out : Нет
Заполнение пропущенных сэмплов тишиной : Да
Удаление блоков с тишиной в начале и конце : Нет
При вычислениях CRC использовались нулевые сэмплы : Да
Интерфейс : Встроенный Win32-интерфейс для Win NT/2000

Выходной формат : Пользовательский кодировщик
Выбранный битрейт : 32 kBit/s
Качество : Высокий
Добавление ID3-тега : Нет
Утилита сжатия : C:\Program Files\Exact Audio Copy\Flac\flac.exe
Дополнительные параметры : -V -8 -T "Date=%year%" -T "Genre=%genre%" %source%


TOC извлечённого CD

Трек | Старт | Длительность | Начальный сектор | Конечный сектор
---------------------------------------------------------------------
1 | 0:00.00 | 4:28.42 | 0 | 20141
2 | 4:28.42 | 4:15.68 | 20142 | 39334
3 | 8:44.35 | 5:22.07 | 39335 | 63491
4 | 14:06.42 | 4:40.43 | 63492 | 84534
5 | 18:47.10 | 3:32.15 | 84535 | 100449
6 | 22:19.25 | 4:09.50 | 100450 | 119174
7 | 26:29.00 | 5:24.17 | 119175 | 143491
8 | 31:53.17 | 3:27.38 | 143492 | 159054
9 | 35:20.55 | 4:01.40 | 159055 | 177169
10 | 39:22.20 | 4:06.35 | 177170 | 195654


Характеристики диапазона извлечения и сообщения об ошибках

Выбранный диапазон

Имя файла Y:\Music\Lizzy Borden\1986 Menace To Society\Lizzy Borden - Menace To Society [32XB-140].wav

Пиковый уровень 94.6 %
Скорость извлечения 3.6 X
Качество диапазона 100.0 %
CRC теста 007A6BE1
CRC копии 007A6BE1
Копирование... OK

Ошибок не произошло


AccurateRip: сводка

Трек 1 отсутствует в базе данных
Трек 2 отсутствует в базе данных
Трек 3 отсутствует в базе данных
Трек 4 отсутствует в базе данных
Трек 5 отсутствует в базе данных
Трек 6 отсутствует в базе данных
Трек 7 отсутствует в базе данных
Трек 8 отсутствует в базе данных
Трек 9 отсутствует в базе данных
Трек 10 отсутствует в базе данных

Ни одного трека нет в базе AccurateRip

Конец отчёта

cue
REM GENRE "Heavy Metal"
REM DATE 1986
REM DISCID 780A300A
REM COMMENT "ExactAudioCopy v1.0b3"
PERFORMER "Lizzy Borden"
TITLE "Menace To Society [32XB-140]"
FILE "Lizzy Borden - Menace To Society [32XB-140].flac" WAVE
TRACK 01 AUDIO
TITLE "Generation Aliens"
PERFORMER "Lizzy Borden"
INDEX 01 00:00:00
TRACK 02 AUDIO
TITLE "Notorious"
PERFORMER "Lizzy Borden"
INDEX 01 04:28:42
TRACK 03 AUDIO
TITLE "Terror On The Town"
PERFORMER "Lizzy Borden"
INDEX 01 08:44:35
INDEX 02 09:23:32
TRACK 04 AUDIO
TITLE "Bloody Mary"
PERFORMER "Lizzy Borden"
INDEX 01 14:06:42
TRACK 05 AUDIO
TITLE "Stiletto (Voice Of Command)"
PERFORMER "Lizzy Borden"
INDEX 01 18:47:10
TRACK 06 AUDIO
TITLE "Ultra Violence"
PERFORMER "Lizzy Borden"
INDEX 01 22:19:25
TRACK 07 AUDIO
TITLE "Love Kills"
PERFORMER "Lizzy Borden"
INDEX 01 26:29:00
TRACK 08 AUDIO
TITLE "Brass Tactics"
PERFORMER "Lizzy Borden"
INDEX 01 31:53:17
TRACK 09 AUDIO
TITLE "Ursa Minor"
PERFORMER "Lizzy Borden"
INDEX 01 35:20:55
TRACK 10 AUDIO
TITLE "Menace To Society"
PERFORMER "Lizzy Borden"
INDEX 01 39:22:20

spectrum
Image

_________________


Top
 Profile E-mail  
 
 
PostPosted: 23 Feb 2013 
А может смените мне статус?..
User avatar
Joined: 24 Dec 2008
Posts: 635
Age: 45
Name: Дмитрий
Дебютник, на мой взгляд, ещё интересней! :true:


Top
 Profile  
 
 
PostPosted: 25 Feb 2013 
Хиппей (support team)
User avatar
Joined: 30 Jul 2007
Posts: 111829
Lоcаtion: Киев (Kyiv, UA)
Age: 45
Name: Andrey
Ну тут без вопросов :true:

_________________


Top
 Profile E-mail  
 
Display posts from previous:  Sort by  
Post new topic Reply to topic  [ 3 posts ] 

All times are UTC + 3 hours


Who is online

Users browsing this forum: No registered users and 1 guest


You cannot post new topics in this forum
You cannot reply to topics in this forum
You cannot edit your posts in this forum
You cannot delete your posts in this forum
You cannot post attachments in this forum

Search for:
Яндекс.Метрика
Powered by phpBB © 2000, 2002, 2005, 2007 phpBB Group