\m/ 80's metal \m/

Информационно-аналитический форум "80 см пыли" (In Search We Trust) "У нас никто никуда не спешит"
Me For You - http://me-4u.com
It is currently 21 Sep 2019

All times are UTC + 3 hours

Spoiler
Chat - temporary registration for foreign users (please leave your application here)







Post new topic Reply to topic  [ 95 posts ]  Go to page 1, 2, 3, 4, 5  Next
Author Message
 
PostPosted: 23 Jan 2013 
Анатолий
User avatar
Joined: 18 Oct 2008
Posts: 3531
Lоcаtion: Армавир
Age: 42
Name: Анатолий
Legend - "Anthology" - 2002

Image

Disc 1
1. Torture 07:11
2. Hiroshima 05:12
3. Buried Alive 05:59
4. Taste of Life 04:46
5. Bad Girl 04:33
6. Negligence 05:06
7. Song for a Soldier 09:12
8. Stormers of Heaven 03:09
9. Open Up the Skies 03:37
10. Frontline 05:26
11. Sabra & Chatila 04:22
58:33
Disc 2
1. Why Don't You Kill Me 04:20
2. Choices 04:21
3. Anthrax Attack 03:38
4. Prisoner 05:47
5. Lazy Woman 03:18
6. Warrior 04:08
7. Time Bomb 02:35
8. Death in the Nursery 04:41
9. Prologue 06:33
10. Questions & Answers 04:01
11. Catch a Moment 03:58
12. Out of Luck 04:25
13. It's Not the Same 03:33
14. The Other Day 03:09
15. Take Me Away 03:07
01:01:34

A collection of the band's entire catalogue, with all 3 of their official vinyl releases from the early '80s as well as previously unreleased demo material, all digitally remastered and collected onto 2 CDs.

Disc 1, Tracks 1-7: Legend LP
Disc 1, Tracks 8-11: Frontline EP
Disc 2, Tracks 1-9: Death in the Nursery LP
Disc 2, Tracks 10-15: Rare '83 demo

Reissued in 2009 by Forged in Fire (Rockadrome), the successor to Monster Records.

Peter Haworth Guitars
Mike Lezala Vocals
Eggy Aubert Bass
David Whitley Drums
Marco Morosino Guitars

Рекомендую всем любителям творчества Black Sabbath, а так же NWOBHM не стандартного вида.


Top
 Profile E-mail  
 
 
PostPosted: 23 Jan 2013 
консэрваторъ
User avatar
Joined: 11 Aug 2007
Posts: 17222
Lоcаtion: Псков
Age: 45
Name: Сергей
320 на всякий пожарный... :oops:

_________________
THRASH 'EM ALL


Top
 Profile E-mail  
 
 
PostPosted: 23 Jan 2013 
Анатолий
User avatar
Joined: 18 Oct 2008
Posts: 3531
Lоcаtion: Армавир
Age: 42
Name: Анатолий
splatty

Я скачал уже... и послушал... поэтому и заказал качеством выше. :smile:


Top
 Profile E-mail  
 
 
PostPosted: 24 Jan 2013 
консэрваторъ
User avatar
Joined: 11 Aug 2007
Posts: 17222
Lоcаtion: Псков
Age: 45
Name: Сергей
Цены колеблются от 20 до 65 рупиев... а вот этот вариантик, Толь, глядел?.. Посчитал до Пскова на Рокадроме - 19 с копейками... Если дойдёт дело до куплипродажи, неплохой вариант?..

_________________
THRASH 'EM ALL


Top
 Profile E-mail  
 
 
PostPosted: 24 Jan 2013 
Анатолий
User avatar
Joined: 18 Oct 2008
Posts: 3531
Lоcаtion: Армавир
Age: 42
Name: Анатолий
splatty

Я никогда этим не занимался... но если надо, то могу поучавствовать.


Top
 Profile E-mail  
 
 
PostPosted: 17 Feb 2013 
Работнечег
User avatar
Joined: 28 Aug 2007
Posts: 5995
Lоcаtion: г. Москва
Age: 30
Name: Дима
Вот этот вариант тож неплох http://www.musicstack.com/item/274622869
впринципе можно и скинуться, группа хорошая)


Top
 Profile E-mail  
 
 
PostPosted: 18 Feb 2013 
Анатолий
User avatar
Joined: 18 Oct 2008
Posts: 3531
Lоcаtion: Армавир
Age: 42
Name: Анатолий
Как и написал выше - я только за.


Top
 Profile E-mail  
 
 
PostPosted: 19 Feb 2013 
Хиппей (support team)
User avatar
Joined: 30 Jul 2007
Posts: 114411
Lоcаtion: Киев (Kyiv, UA)
Age: 46
Name: Andrey
Куда скидывать шекели? :rabo:

_________________


Top
 Profile E-mail  
 
 
PostPosted: 28 Feb 2013 
Работнечег
User avatar
Joined: 28 Aug 2007
Posts: 5995
Lоcаtion: г. Москва
Age: 30
Name: Дима
:paid:


Top
 Profile E-mail  
 
 
PostPosted: 05 Mar 2013 
Работнечег
User avatar
Joined: 28 Aug 2007
Posts: 5995
Lоcаtion: г. Москва
Age: 30
Name: Дима
Кстати, вот чего прочел на оф. сайте
"Legend's new album 'The Dark Place' has finally been completed. It was recorded in Jersey and mastered at Abbey Road Studios in London. Release is scheduled for the Spring 2013. It will be available as digital download or CD with 'bonus extras'. There is also likely to be a Vinyl edition."
Так вроде бы и неплохой альбом получается...
phpBB [youtube]


Top
 Profile E-mail  
 
 
PostPosted: 11 Mar 2013 
Хиппей (support team)
User avatar
Joined: 30 Jul 2007
Posts: 114411
Lоcаtion: Киев (Kyiv, UA)
Age: 46
Name: Andrey
:paid:

Дим, так во сколько обошелся дисочек? :oops:

_________________


Top
 Profile E-mail  
 
 
PostPosted: 11 Mar 2013 
Персональный статус
User avatar
Joined: 02 Jul 2009
Posts: 310
Name: Александр
Извините влез не в тему . А куда делся запрос про Universe - Bad Child - 1992 ? Что не так ? Ничего не понимаю . Ещё раз извините , что не по теме .


Top
 Profile E-mail  
 
 
PostPosted: 11 Mar 2013 
Хиппей (support team)
User avatar
Joined: 30 Jul 2007
Posts: 114411
Lоcаtion: Киев (Kyiv, UA)
Age: 46
Name: Andrey
Сань, запрос перенесён из раздела Лослесс-запросы в раздел найденных лосей =)

Ты это... на будущее - подписывайся на свои же темы. Или щас зайди к себе в профиль и глянь свои же последние сообщения.
search.php?author_id=678&sr=posts


зы. Интересно снова опрос сделать, как пользователи читают форум. С какого именно места это начинают делать... :umnik:

_________________


Top
 Profile E-mail  
 
 
PostPosted: 18 Mar 2013 
Работнечег
User avatar
Joined: 28 Aug 2007
Posts: 5995
Lоcаtion: г. Москва
Age: 30
Name: Дима
:paid:

Дим, так во сколько обошелся дисочек? :oops:

650 рублей на двоих)


Top
 Profile E-mail  
 
 
PostPosted: 18 Mar 2013 
Хиппей (support team)
User avatar
Joined: 30 Jul 2007
Posts: 114411
Lоcаtion: Киев (Kyiv, UA)
Age: 46
Name: Andrey
church wrote:
650 рублей на двоих)

Норм-норм :true:

_________________


Top
 Profile E-mail  
 
 
PostPosted: 22 Jul 2013 
Работнечег
User avatar
Joined: 28 Aug 2007
Posts: 5995
Lоcаtion: г. Москва
Age: 30
Name: Дима
Image

Band: Legend
Album: Anthology (Compilation)
Label: Monster Records
Genre: NWOBHM, Heavy Metal
Country: UK
Format: Flac + Log + Cue + Covers
Size: 429 Mb + 393 Mb

LOG
Exact Audio Copy V0.99 prebeta 5 from 4. May 2009

EAC extraction logfile from 14. July 2013, 14:54

Legend / Anthology CD1

Used drive : PIONEER DVD-RW DVR-116D Adapter: 0 ID: 0

Read mode : Secure
Utilize accurate stream : Yes
Defeat audio cache : Yes
Make use of C2 pointers : No

Read offset correction : 96
Overread into Lead-In and Lead-Out : No
Fill up missing offset samples with silence : Yes
Delete leading and trailing silent blocks : No
Null samples used in CRC calculations : Yes
Used interface : Native Win32 interface for Win NT & 2000

Used output format : User Defined Encoder
Selected bitrate : 32 kBit/s
Quality : High
Add ID3 tag : No
Command line compressor : C:\Program Files\Exact Audio Copy\Flac\flac.exe
Additional command line options : -6 -V %s


TOC of the extracted CD

Track | Start | Length | Start sector | End sector
---------------------------------------------------------
1 | 0:00.00 | 7:11.71 | 0 | 32395
2 | 7:11.71 | 5:12.04 | 32396 | 55799
3 | 12:24.00 | 5:59.27 | 55800 | 82751
4 | 18:23.27 | 4:46.10 | 82752 | 104211
5 | 23:09.37 | 4:33.61 | 104212 | 124747
6 | 27:43.23 | 5:06.18 | 124748 | 147715
7 | 32:49.41 | 9:12.38 | 147716 | 189153
8 | 42:02.04 | 3:09.27 | 189154 | 203355
9 | 45:11.31 | 3:37.46 | 203356 | 219676
10 | 48:49.02 | 5:26.22 | 219677 | 244148
11 | 54:15.24 | 4:22.62 | 244149 | 263860


Range status and errors

Selected range

Filename D:\Музыка\Lossless\Legend - Anthology (Compilation)(2002)\CD 1\Legend - Anthology CD1.wav

Peak level 96.6 %
Range quality 99.9 %
Copy CRC AF3FBF1A
Copy OK

No errors occurred


AccurateRip summary

Track 1 not present in database
Track 2 not present in database
Track 3 not present in database
Track 4 not present in database
Track 5 not present in database
Track 6 not present in database
Track 7 not present in database
Track 8 not present in database
Track 9 not present in database
Track 10 not present in database
Track 11 not present in database

None of the tracks are present in the AccurateRip database

End of status report

CUE
REM GENRE "NWOBHM, Heavy Metal"
REM DATE 2002
REM DISCID 900DBE0B
REM COMMENT "ExactAudioCopy v0.99pb5"
PERFORMER "Legend"
TITLE "Anthology CD1"
FILE "Legend - Anthology CD1.flac" WAVE
TRACK 01 AUDIO
TITLE "Torture"
PERFORMER "Legend"
INDEX 01 00:00:00
TRACK 02 AUDIO
TITLE "Hiroshima"
PERFORMER "Legend"
INDEX 00 07:09:71
INDEX 01 07:11:71
TRACK 03 AUDIO
TITLE "Buried Alive"
PERFORMER "Legend"
INDEX 00 12:22:00
INDEX 01 12:24:00
TRACK 04 AUDIO
TITLE "Taste Of Life"
PERFORMER "Legend"
INDEX 00 18:21:27
INDEX 01 18:23:27
TRACK 05 AUDIO
TITLE "Bad Girl"
PERFORMER "Legend"
INDEX 00 23:07:37
INDEX 01 23:09:37
TRACK 06 AUDIO
TITLE "Negligence"
PERFORMER "Legend"
INDEX 00 27:41:23
INDEX 01 27:43:23
TRACK 07 AUDIO
TITLE "Song For A Soldier"
PERFORMER "Legend"
INDEX 00 32:47:41
INDEX 01 32:49:41
TRACK 08 AUDIO
TITLE "Stormers Of Heaven"
PERFORMER "Legend"
INDEX 00 42:00:04
INDEX 01 42:02:04
TRACK 09 AUDIO
TITLE "Open Up The Skies"
PERFORMER "Legend"
INDEX 00 45:09:31
INDEX 01 45:11:31
TRACK 10 AUDIO
TITLE "Frontline"
PERFORMER "Legend"
INDEX 00 48:47:02
INDEX 01 48:49:02
TRACK 11 AUDIO
TITLE "Sabra & Chatila"
PERFORMER "Legend"
INDEX 00 54:13:24
INDEX 01 54:15:24


Part 1
Part 2

Второй альбом больше понравился) Также отмечу пожалуй хороший ремастер, разница в прослушиваниии альбома и демок не чувствуется, сделали хорошо, на мой взгляд)


Top
 Profile E-mail  
 
 
PostPosted: 23 Jul 2013 
Хиппей (support team)
User avatar
Joined: 30 Jul 2007
Posts: 114411
Lоcаtion: Киев (Kyiv, UA)
Age: 46
Name: Andrey
:thanx: :thanx:

mirror: F-Bit l Narod

_________________


Top
 Profile E-mail  
 
 
PostPosted: 23 Jul 2013 
Анатолий
User avatar
Joined: 18 Oct 2008
Posts: 3531
Lоcаtion: Армавир
Age: 42
Name: Анатолий
church

Спасибо за сотрудничество! :thanx: :true:

P.S. У нас там ещё одно дельце имеется. ;)


Top
 Profile E-mail  
 
 
PostPosted: 23 Jul 2013 
Хиппей (support team)
User avatar
Joined: 30 Jul 2007
Posts: 114411
Lоcаtion: Киев (Kyiv, UA)
Age: 46
Name: Andrey
Тихари, блин, деловые :crazy:

_________________


Top
 Profile E-mail  
 
 
PostPosted: 23 Jul 2013 
Анатолий
User avatar
Joined: 18 Oct 2008
Posts: 3531
Lоcаtion: Армавир
Age: 42
Name: Анатолий
Scatterbrain wrote:
Тихари, блин, деловые


Никакого тихорства. Всё лежит здесь, на форуме.


Top
 Profile E-mail  
 
Display posts from previous:  Sort by  
Post new topic Reply to topic  [ 95 posts ]  Go to page 1, 2, 3, 4, 5  Next

All times are UTC + 3 hours


Who is online

Users browsing this forum: No registered users and 1 guest


You cannot post new topics in this forum
You cannot reply to topics in this forum
You cannot edit your posts in this forum
You cannot delete your posts in this forum
You cannot post attachments in this forum

Search for:
Яндекс.Метрика
Powered by phpBB © 2000, 2002, 2005, 2007 phpBB Group