\m/ 80's metal \m/

Информационно-аналитический форум "80 см пыли" (In Search We Trust) "У нас никто никуда не спешит"
Me For You - http://me-4u.com
It is currently 22 Jul 2019

All times are UTC + 3 hours

Spoiler
Chat - temporary registration for foreign users (please leave your application here)







Post new topic Reply to topic  [ 9 posts ] 
Author Message
 
PostPosted: 01 May 2012 
Работнечег
User avatar
Joined: 28 Aug 2007
Posts: 5919
Lоcаtion: г. Москва
Age: 30
Name: Дима
Image

Band: Letter 7
Album: Salt On The Earth
Year: 2007
Label: Lifeline Productions
Genre: Hard'N'Heavy
Coutry: USA
Format: Flac + Log + Cue + Covers
Size: 331 Mb

Line-Up:
JD Evans - Lead And Rhytm Guitars, Bass, Drums, Keys, Backing Vocals
Tom Collete - Lead And Backing Vocals
Daryl Evans - Keys On Fear No Evil and Seek First
Ken Orth - Bass riff on Salt On The Earth


Tracklist:
1. Intro
2. Onward Christian Soldier
3. Salt of the Earth
4. Fear No Evil
5. First Love
6. Great I Am
7. Almost Home
8. Judgment Day
9. Stand on the Rock
10. Reign Comes Down
11. Seek First

LOG
Exact Audio Copy V0.99 prebeta 5 from 4. May 2009

EAC extraction logfile from 2. January 2012, 14:59

Letter 7 / Salt Of The Earth

Used drive : PIONEER DVD-RW DVR-116D Adapter: 0 ID: 0

Read mode : Secure
Utilize accurate stream : Yes
Defeat audio cache : Yes
Make use of C2 pointers : No

Read offset correction : 96
Overread into Lead-In and Lead-Out : No
Fill up missing offset samples with silence : Yes
Delete leading and trailing silent blocks : No
Null samples used in CRC calculations : Yes
Used interface : Native Win32 interface for Win NT & 2000

Used output format : User Defined Encoder
Selected bitrate : 32 kBit/s
Quality : High
Add ID3 tag : No
Command line compressor : C:\Program Files\Exact Audio Copy\Flac\flac.exe
Additional command line options : -6 -V %s


TOC of the extracted CD

Track | Start | Length | Start sector | End sector
---------------------------------------------------------
1 | 0:00.00 | 0:34.37 | 0 | 2586
2 | 0:34.37 | 4:01.32 | 2587 | 20693
3 | 4:35.69 | 5:00.09 | 20694 | 43202
4 | 9:36.03 | 5:55.38 | 43203 | 69865
5 | 15:31.41 | 4:54.30 | 69866 | 91945
6 | 20:25.71 | 3:42.42 | 91946 | 108637
7 | 24:08.38 | 4:55.57 | 108638 | 130819
8 | 29:04.20 | 3:48.51 | 130820 | 147970
9 | 32:52.71 | 4:40.05 | 147971 | 168975
10 | 37:33.01 | 4:53.62 | 168976 | 191012
11 | 42:26.63 | 4:29.54 | 191013 | 211241


Range status and errors

Selected range

Filename D:\Музыка\Lossless\Letter 7 - Salt Of The Earth (Reissued In 2007)\Letter 7 - Salt Of The Earth.wav

Peak level 97.7 %
Range quality 99.9 %
Copy CRC E0D92E2B
Copy OK

No errors occurred


AccurateRip summary

Track 1 not present in database
Track 2 not present in database
Track 3 not present in database
Track 4 not present in database
Track 5 not present in database
Track 6 not present in database
Track 7 not present in database
Track 8 not present in database
Track 9 not present in database
Track 10 not present in database
Track 11 not present in database

None of the tracks are present in the AccurateRip database

End of status report

CUE
REM GENRE "Hard 'N' Heavy"
REM DATE 2007
REM DISCID 9C0B000B
REM COMMENT "ExactAudioCopy v0.99pb5"
PERFORMER "Letter 7"
TITLE "Salt Of The Earth"
FILE "Letter 7 - Salt Of The Earth.flac" WAVE
TRACK 01 AUDIO
TITLE "Intro"
PERFORMER "Letter 7"
INDEX 01 00:00:00
TRACK 02 AUDIO
TITLE "O.C.S."
PERFORMER "Letter 7"
INDEX 01 00:34:37
TRACK 03 AUDIO
TITLE "Salt Of The Earth"
PERFORMER "Letter 7"
INDEX 00 04:33:69
INDEX 01 04:35:69
TRACK 04 AUDIO
TITLE "Fear No Evil"
PERFORMER "Letter 7"
INDEX 00 09:34:03
INDEX 01 09:36:03
TRACK 05 AUDIO
TITLE "First Love"
PERFORMER "Letter 7"
INDEX 01 15:31:41
TRACK 06 AUDIO
TITLE "Great I Am"
PERFORMER "Letter 7"
INDEX 00 15:35:41
INDEX 01 20:25:71
TRACK 07 AUDIO
TITLE "Almost Home"
PERFORMER "Letter 7"
INDEX 00 24:06:38
INDEX 01 24:08:38
TRACK 08 AUDIO
TITLE "Judgement Day"
PERFORMER "Letter 7"
INDEX 00 29:02:20
INDEX 01 29:04:20
TRACK 09 AUDIO
TITLE "Stand On The Rock"
PERFORMER "Letter 7"
INDEX 00 32:50:71
INDEX 01 32:52:71
TRACK 10 AUDIO
TITLE "Reign Come Down"
PERFORMER "Letter 7"
INDEX 01 37:33:01
TRACK 11 AUDIO
TITLE "Seek First"
PERFORMER "Letter 7"
INDEX 00 37:37:01
INDEX 01 42:26:63

spectrum
Image



Narod.Ru

За предоставленный диск большое спасибо uriyy! Достойный альбом, мне понравился :true:


Top
 Profile E-mail  
 
 
PostPosted: 01 May 2012 
Прокъмитолист
User avatar
Joined: 12 Aug 2007
Posts: 6579
Lоcаtion: Санктъ-Петербуркъ
Age: 51
Name: Олекъ
пригодицо. спасибо, парни :thanx:

_________________
прокъметол - это музыко, от которово есть прок (ы)


Top
 Profile  
 
 
PostPosted: 02 May 2012 
Я набрал 1000 сообщений!
Joined: 12 Dec 2008
Posts: 1066
Lоcаtion: BULGARIA
Age: 40
Name: DIMITЪR
Спасибо ,второй альбомчек Follow The Light по сильнейший, но он нигде не встречается :dash: :dash:


Top
 Profile  
 
 
PostPosted: 02 May 2012 
Хиппей (support team)
User avatar
Joined: 30 Jul 2007
Posts: 113588
Lоcаtion: Киев (Kyiv, UA)
Age: 46
Name: Andrey
:thanx:

mirror: MultiUp l Narod

_________________


Top
 Profile E-mail  
 
 
PostPosted: 02 May 2012 
Я набрал 1000 сообщений!
Joined: 24 Oct 2009
Posts: 2233
Lоcаtion: Оренбург
Age: 55
Name: Юра
church wrote:
Достойный альбом, мне понравился

Ага...мне тоже.... :true:

_________________
:dash: I am happy!


Top
 Profile E-mail  
 
 
PostPosted: 04 May 2012 
Пионэръ
Joined: 12 Aug 2009
Posts: 23
Name: Явор
@Cryptors: Ну как же нигде не встречается!!! :nea: На эбае доступ к альбома вполне свободный ;) 3 дней без алькоголя и деньги для дискочек готовые :drynk:
http://www.ebay.com/itm/LETTER-7-Follow-the-light-Rare-Christian-HR-CD-/360454930845?pt=Music_CDs&hash=item53ecc9c19d


Top
 Profile E-mail  
 
 
PostPosted: 07 May 2012 
Пионэръ
User avatar
Joined: 08 Nov 2010
Posts: 43
Lоcаtion: Россия
Name: Юрий
Отличная группа, спасибо!


Top
 Profile E-mail  
 
 
PostPosted: 17 Jul 2012 
Хиппей (support team)
User avatar
Joined: 30 Jul 2007
Posts: 113588
Lоcаtion: Киев (Kyiv, UA)
Age: 46
Name: Andrey
Вот, вот этот альбом мне весьма и весьма понравился.
Правда, за несколько недель забыл, что и как было не предыдущем, но вроде я там павер услышал :crazy:
Здесь же чистый современный Hard Rock, но без какой-либо моднятины в саунде.
Добротная, очень крепкая работа, но не шедевр.
Что, собственно, и ожидалось :dance:

7-/10

_________________


Top
 Profile E-mail  
 
 
PostPosted: 17 Jul 2012 
Хиппей (support team)
User avatar
Joined: 30 Jul 2007
Posts: 113588
Lоcаtion: Киев (Kyiv, UA)
Age: 46
Name: Andrey
Scatterbrain wrote:
Правда, за несколько недель забыл, что и как было не предыдущем, но вроде я там павер услышал

Ой, только что понял, что предыдущего и не было, а последующий, который якобы лучший у группы, я уже зачмырил viewtopic.php?p=160830#p160830 :pardon:

_________________


Top
 Profile E-mail  
 
Display posts from previous:  Sort by  
Post new topic Reply to topic  [ 9 posts ] 

All times are UTC + 3 hours


Who is online

Users browsing this forum: No registered users and 1 guest


You cannot post new topics in this forum
You cannot reply to topics in this forum
You cannot edit your posts in this forum
You cannot delete your posts in this forum
You cannot post attachments in this forum

Search for:
Яндекс.Метрика
Powered by phpBB © 2000, 2002, 2005, 2007 phpBB Group